  0
SECTION
  2
HEADER
  9
$ACADVER
  1
AC1015
  9
$ACADMAINTVER
 70
     6
  9
$DWGCODEPAGE
  3
ANSI_1252
  9
$INSBASE
 10
0.0
 20
0.0
 30
0.0
  9
$EXTMIN
 10
-105.0000000000001
 20
0.0
 30
0.0
  9
$EXTMAX
 10
0.0
 20
148.5000000000001
 30
0.0
  9
$LIMMIN
 10
0.0
 20
0.0
  9
$LIMMAX
 10
12.0
 20
9.0
  9
$ORTHOMODE
 70
     0
  9
$REGENMODE
 70
     1
  9
$FILLMODE
 70
     1
  9
$QTEXTMODE
 70
     0
  9
$MIRRTEXT
 70
     1
  9
$LTSCALE
 40
1.0
  9
$ATTMODE
 70
     1
  9
$TEXTSIZE
 40
0.2
  9
$TRACEWID
 40
0.05
  9
$TEXTSTYLE
  7
Standard
  9
$CLAYER
  8
0
  9
$CELTYPE
  6
ByLayer
  9
$CECOLOR
 62
   256
  9
$CELTSCALE
 40
1.0
  9
$DISPSILH
 70
     0
  9
$DIMSCALE
 40
1.0
  9
$DIMASZ
 40
0.18
  9
$DIMEXO
 40
0.0625
  9
$DIMDLI
 40
0.38
  9
$DIMRND
 40
0.0
  9
$DIMDLE
 40
0.0
  9
$DIMEXE
 40
0.18
  9
$DIMTP
 40
0.0
  9
$DIMTM
 40
0.0
  9
$DIMTXT
 40
0.18
  9
$DIMCEN
 40
0.09
  9
$DIMTSZ
 40
0.0
  9
$DIMTOL
 70
     0
  9
$DIMLIM
 70
     0
  9
$DIMTIH
 70
     1
  9
$DIMTOH
 70
     1
  9
$DIMSE1
 70
     0
  9
$DIMSE2
 70
     0
  9
$DIMTAD
 70
     0
  9
$DIMZIN
 70
     0
  9
$DIMBLK
  1

  9
$DIMASO
 70
     1
  9
$DIMSHO
 70
     1
  9
$DIMPOST
  1

  9
$DIMAPOST
  1

  9
$DIMALT
 70
     0
  9
$DIMALTD
 70
     2
  9
$DIMALTF
 40
25.4
  9
$DIMLFAC
 40
1.0
  9
$DIMTOFL
 70
     0
  9
$DIMTVP
 40
0.0
  9
$DIMTIX
 70
     0
  9
$DIMSOXD
 70
     0
  9
$DIMSAH
 70
     0
  9
$DIMBLK1
  1

  9
$DIMBLK2
  1

  9
$DIMSTYLE
  2
Standard
  9
$DIMCLRD
 70
     0
  9
$DIMCLRE
 70
     0
  9
$DIMCLRT
 70
     0
  9
$DIMTFAC
 40
1.0
  9
$DIMGAP
 40
0.09
  9
$DIMJUST
 70
     0
  9
$DIMSD1
 70
     0
  9
$DIMSD2
 70
     0
  9
$DIMTOLJ
 70
     1
  9
$DIMTZIN
 70
     0
  9
$DIMALTZ
 70
     0
  9
$DIMALTTZ
 70
     0
  9
$DIMUPT
 70
     0
  9
$DIMDEC
 70
     4
  9
$DIMTDEC
 70
     4
  9
$DIMALTU
 70
     2
  9
$DIMALTTD
 70
     2
  9
$DIMTXSTY
  7
Standard
  9
$DIMAUNIT
 70
     0
  9
$DIMADEC
 70
     0
  9
$DIMALTRND
 40
0.0
  9
$DIMAZIN
 70
     0
  9
$DIMDSEP
 70
    46
  9
$DIMATFIT
 70
     3
  9
$DIMFRAC
 70
     0
  9
$DIMLDRBLK
  1

  9
$DIMLUNIT
 70
     2
  9
$DIMLWD
 70
    -2
  9
$DIMLWE
 70
    -2
  9
$DIMTMOVE
 70
     0
  9
$LUNITS
 70
     2
  9
$LUPREC
 70
     4
  9
$SKETCHINC
 40
0.1
  9
$FILLETRAD
 40
0.5
  9
$AUNITS
 70
     0
  9
$AUPREC
 70
     0
  9
$MENU
  1
.
  9
$ELEVATION
 40
0.0
  9
$PELEVATION
 40
0.0
  9
$THICKNESS
 40
0.0
  9
$LIMCHECK
 70
     0
  9
$CHAMFERA
 40
0.5
  9
$CHAMFERB
 40
0.5
  9
$CHAMFERC
 40
1.0
  9
$CHAMFERD
 40
0.0
  9
$SKPOLY
 70
     0
  9
$TDCREATE
 40
2456997.424390486
  9
$TDUCREATE
 40
2456997.382723819
  9
$TDUPDATE
 40
2456997.424390857
  9
$TDUUPDATE
 40
2456997.38272419
  9
$TDINDWG
 40
0.0000000116
  9
$TDUSRTIMER
 40
0.0000000116
  9
$USRTIMER
 70
     1
  9
$ANGBASE
 50
0.0
  9
$ANGDIR
 70
     0
  9
$PDMODE
 70
     0
  9
$PDSIZE
 40
0.0
  9
$PLINEWID
 40
0.0
  9
$SPLFRAME
 70
     0
  9
$SPLINETYPE
 70
     6
  9
$SPLINESEGS
 70
     8
  9
$HANDSEED
  5
39D
  9
$SURFTAB1
 70
     6
  9
$SURFTAB2
 70
     6
  9
$SURFTYPE
 70
     6
  9
$SURFU
 70
     6
  9
$SURFV
 70
     6
  9
$UCSBASE
  2

  9
$UCSNAME
  2

  9
$UCSORG
 10
0.0
 20
0.0
 30
0.0
  9
$UCSXDIR
 10
1.0
 20
0.0
 30
0.0
  9
$UCSYDIR
 10
0.0
 20
1.0
 30
0.0
  9
$UCSORTHOREF
  2

  9
$UCSORTHOVIEW
 70
     0
  9
$UCSORGTOP
 10
0.0
 20
0.0
 30
0.0
  9
$UCSORGBOTTOM
 10
0.0
 20
0.0
 30
0.0
  9
$UCSORGLEFT
 10
0.0
 20
0.0
 30
0.0
  9
$UCSORGRIGHT
 10
0.0
 20
0.0
 30
0.0
  9
$UCSORGFRONT
 10
0.0
 20
0.0
 30
0.0
  9
$UCSORGBACK
 10
0.0
 20
0.0
 30
0.0
  9
$PUCSBASE
  2

  9
$PUCSNAME
  2

  9
$PUCSORG
 10
0.0
 20
0.0
 30
0.0
  9
$PUCSXDIR
 10
1.0
 20
0.0
 30
0.0
  9
$PUCSYDIR
 10
0.0
 20
1.0
 30
0.0
  9
$PUCSORTHOREF
  2

  9
$PUCSORTHOVIEW
 70
     0
  9
$PUCSORGTOP
 10
0.0
 20
0.0
 30
0.0
  9
$PUCSORGBOTTOM
 10
0.0
 20
0.0
 30
0.0
  9
$PUCSORGLEFT
 10
0.0
 20
0.0
 30
0.0
  9
$PUCSORGRIGHT
 10
0.0
 20
0.0
 30
0.0
  9
$PUCSORGFRONT
 10
0.0
 20
0.0
 30
0.0
  9
$PUCSORGBACK
 10
0.0
 20
0.0
 30
0.0
  9
$USERI1
 70
     0
  9
$USERI2
 70
     0
  9
$USERI3
 70
     0
  9
$USERI4
 70
     0
  9
$USERI5
 70
     0
  9
$USERR1
 40
18.1
  9
$USERR2
 40
0.0
  9
$USERR3
 40
0.0
  9
$USERR4
 40
0.0
  9
$USERR5
 40
0.0
  9
$WORLDVIEW
 70
     1
  9
$SHADEDGE
 70
     3
  9
$SHADEDIF
 70
    70
  9
$TILEMODE
 70
     1
  9
$MAXACTVP
 70
    64
  9
$PINSBASE
 10
0.0
 20
0.0
 30
0.0
  9
$PLIMCHECK
 70
     0
  9
$PEXTMIN
 10
1.00000000000000E+20
 20
1.00000000000000E+20
 30
1.00000000000000E+20
  9
$PEXTMAX
 10
-1.00000000000000E+20
 20
-1.00000000000000E+20
 30
-1.00000000000000E+20
  9
$PLIMMIN
 10
0.0
 20
0.0
  9
$PLIMMAX
 10
12.0
 20
9.0
  9
$UNITMODE
 70
     0
  9
$VISRETAIN
 70
     1
  9
$PLINEGEN
 70
     0
  9
$PSLTSCALE
 70
     1
  9
$TREEDEPTH
 70
  3020
  9
$CMLSTYLE
  2
Standard
  9
$CMLJUST
 70
     0
  9
$CMLSCALE
 40
1.0
  9
$PROXYGRAPHICS
 70
     1
  9
$MEASUREMENT
 70
     1
  9
$CELWEIGHT
370
    -1
  9
$ENDCAPS
280
     0
  9
$JOINSTYLE
280
     0
  9
$LWDISPLAY
290
     0
  9
$INSUNITS
 70
     4
  9
$HYPERLINKBASE
  1

  9
$STYLESHEET
  1

  9
$XEDIT
290
     1
  9
$CEPSNTYPE
380
     0
  9
$PSTYLEMODE
290
     1
  9
$FINGERPRINTGUID
  2
{0FA82C78-CB4D-486C-9ACB-6E897C4D3F35}
  9
$VERSIONGUID
  2
{FAEB1C32-E019-11D5-929B-00C0DF256EC4}
  9
$EXTNAMES
290
     1
  9
$PSVPSCALE
 40
0.0
  9
$OLESTARTUP
290
     0
  0
ENDSEC
  0
SECTION
  2
CLASSES
  0
CLASS
  1
ACDBDICTIONARYWDFLT
  2
AcDbDictionaryWithDefault
  3
ObjectDBX Classes
 90
        0
280
     0
281
     0
  0
CLASS
  1
VISUALSTYLE
  2
AcDbVisualStyle
  3
ObjectDBX Classes
 90
     4095
280
     0
281
     0
  0
CLASS
  1
MATERIAL
  2
AcDbMaterial
  3
ObjectDBX Classes
 90
     1153
280
     0
281
     0
  0
CLASS
  1
DICTIONARYVAR
  2
AcDbDictionaryVar
  3
ObjectDBX Classes
 90
        0
280
     0
281
     0
  0
CLASS
  1
ACDBPLACEHOLDER
  2
AcDbPlaceHolder
  3
ObjectDBX Classes
 90
        0
280
     0
281
     0
  0
CLASS
  1
LAYOUT
  2
AcDbLayout
  3
ObjectDBX Classes
 90
        0
280
     0
281
     0
  0
ENDSEC
  0
SECTION
  2
TABLES
  0
TABLE
  2
VPORT
  5
8
330
0
100
AcDbSymbolTable
 70
     1
  0
VPORT
  5
29
330
8
100
AcDbSymbolTableRecord
100
AcDbViewportTableRecord
  2
*Active
 70
     0
 10
0.0
 20
0.0
 11
1.0
 21
1.0
 12
-52.50000000000005
 22
74.25000000000006
 13
0.0
 23
0.0
 14
0.5
 24
0.5
 15
0.5
 25
0.5
 16
0.0
 26
0.0
 36
1.0
 17
0.0
 27
0.0
 37
0.0
 40
163.3500000000001
 41
1.60267857142857
 42
50.0
 43
0.0
 44
0.0
 50
0.0
 51
0.0
 71
     0
 72
   100
 73
     1
 74
     3
 75
     0
 76
     0
 77
     0
 78
     0
281
     0
 65
     1
110
0.0
120
0.0
130
0.0
111
1.0
121
0.0
131
0.0
112
0.0
122
1.0
132
0.0
 79
     0
146
0.0
  0
ENDTAB
  0
TABLE
  2
LTYPE
  5
5
330
0
100
AcDbSymbolTable
 70
     8
  0
LTYPE
  5
14
330
5
100
AcDbSymbolTableRecord
100
AcDbLinetypeTableRecord
  2
ByBlock
 70
     0
  3

 72
    65
 73
     0
 40
0.0
  0
LTYPE
  5
15
330
5
100
AcDbSymbolTableRecord
100
AcDbLinetypeTableRecord
  2
ByLayer
 70
     0
  3

 72
    65
 73
     0
 40
0.0
  0
LTYPE
  5
16
330
5
100
AcDbSymbolTableRecord
100
AcDbLinetypeTableRecord
  2
Continuous
 70
     0
  3
Solid line
 72
    65
 73
     0
 40
0.0
  0
LTYPE
  5
3F
330
5
100
AcDbSymbolTableRecord
100
AcDbLinetypeTableRecord
  2
DASHED
 70
     0
  3
Dashed
 72
    65
 73
     2
 40
15.0
 49
7.0
 74
     0
 49
-8.0
 74
     0
  0
LTYPE
  5
40
330
5
100
AcDbSymbolTableRecord
100
AcDbLinetypeTableRecord
  2
DOTTED
 70
     0
  3
Dotted
 72
    65
 73
     2
 40
1.0
 49
0.0
 74
     0
 49
-1.0
 74
     0
  0
LTYPE
  5
41
330
5
100
AcDbSymbolTableRecord
100
AcDbLinetypeTableRecord
  2
DOT_CENTER
 70
     0
  3
Dot_Center
 72
    65
 73
     4
 40
14.0
 49
12.0
 74
     0
 49
-1.0
 74
     0
 49
0.0
 74
     0
 49
-1.0
 74
     0
  0
LTYPE
  5
42
330
5
100
AcDbSymbolTableRecord
100
AcDbLinetypeTableRecord
  2
LONG_DASHED
 70
     0
  3
Long_Dashed
 72
    65
 73
     2
 40
15.0
 49
10.0
 74
     0
 49
-5.0
 74
     0
  0
LTYPE
  5
43
330
5
100
AcDbSymbolTableRecord
100
AcDbLinetypeTableRecord
  2
DASH_CENTER
 70
     0
  3
Dash_Center
 72
    65
 73
     4
 40
14.0
 49
11.0
 74
     0
 49
-1.0
 74
     0
 49
1.0
 74
     0
 49
-1.0
 74
     0
  0
LTYPE
  5
44
330
5
100
AcDbSymbolTableRecord
100
AcDbLinetypeTableRecord
  2
PHANTOM
 70
     0
  3
Phantom
 72
    65
 73
     6
 40
13.0
 49
10.0
 74
     0
 49
-1.0
 74
     0
 49
0.0
 74
     0
 49
-1.0
 74
     0
 49
0.0
 74
     0
 49
-1.0
 74
     0
  0
LTYPE
  5
45
330
5
100
AcDbSymbolTableRecord
100
AcDbLinetypeTableRecord
  2
CENTER_DASH_DASH
 70
     0
  3
Center_Dash_Dash
 72
    65
 73
     6
 40
14.0
 49
9.0
 74
     0
 49
-1.0
 74
     0
 49
1.0
 74
     0
 49
-1.0
 74
     0
 49
1.0
 74
     0
 49
-1.0
 74
     0
  0
ENDTAB
  0
TABLE
  2
LAYER
  5
2
330
0
100
AcDbSymbolTable
 70
     2
  0
LAYER
  5
10
330
2
100
AcDbSymbolTableRecord
100
AcDbLayerTableRecord
  2
0
 70
     0
 62
     7
  6
Continuous
370
    -3
390
F
  0
LAYER
  5
46
330
2
100
AcDbSymbolTableRecord
100
AcDbLayerTableRecord
  2
1
 70
     0
 62
     7
  6
Continuous
370
    -3
390
F
  0
ENDTAB
  0
TABLE
  2
STYLE
  5
3
330
0
100
AcDbSymbolTable
 70
     3
  0
STYLE
  5
11
330
3
100
AcDbSymbolTableRecord
100
AcDbTextStyleTableRecord
  2
Standard
 70
     0
 40
0.0
 41
1.0
 50
0.0
 71
     0
 42
0.2
  3
txt
  4

  0
STYLE
  5
331
330
3
100
AcDbSymbolTableRecord
100
AcDbTextStyleTableRecord
  2
CONVERTER_11
 70
     0
 40
0.0
 41
1.2
 50
0.0
 71
     0
 42
0.2
  3
ARIAL.TTF
  4

  0
STYLE
  5
339
330
3
100
AcDbSymbolTableRecord
100
AcDbTextStyleTableRecord
  2
CONVERTER_12
 70
     0
 40
0.0
 41
0.95
 50
0.0
 71
     0
 42
0.2
  3
simplex.shx
  4

  0
ENDTAB
  0
TABLE
  2
VIEW
  5
6
330
0
100
AcDbSymbolTable
 70
     0
  0
ENDTAB
  0
TABLE
  2
UCS
  5
7
330
0
100
AcDbSymbolTable
 70
     0
  0
ENDTAB
  0
TABLE
  2
APPID
  5
9
330
0
100
AcDbSymbolTable
 70
     1
  0
APPID
  5
12
330
9
100
AcDbSymbolTableRecord
100
AcDbRegAppTableRecord
  2
ACAD
 70
     0
  0
ENDTAB
  0
TABLE
  2
DIMSTYLE
  5
A
330
0
100
AcDbSymbolTable
 70
     4
100
AcDbDimStyleTable
  0
DIMSTYLE
105
27
330
A
100
AcDbSymbolTableRecord
100
AcDbDimStyleTableRecord
  2
Standard
 70
     0
178
     0
340
11
  0
DIMSTYLE
105
34A
102
{ACAD_REACTORS
330
34B
102
}
330
A
100
AcDbSymbolTableRecord
100
AcDbDimStyleTableRecord
  2
ME10_DIM_10
 70
     0
 41
1.5
 42
0.25
 44
0.5
 73
     0
 74
     0
 77
     1
 78
     8
140
1.5
147
1.0
172
     1
173
     1
174
     1
175
     1
176
     2
177
     2
271
     2
178
     4
271
     2
340
339
  0
DIMSTYLE
105
355
102
{ACAD_REACTORS
330
356
102
}
330
A
100
AcDbSymbolTableRecord
100
AcDbDimStyleTableRecord
  2
ME10_DIM_11
 70
     0
 41
1.5
 42
0.25
 44
0.5
 73
     0
 74
     0
 77
     1
 78
     8
140
1.5
147
1.0
172
     1
173
     1
174
     1
175
     1
176
     2
177
     2
271
     2
178
     4
271
     2
340
339
  0
DIMSTYLE
105
360
102
{ACAD_REACTORS
330
361
102
}
330
A
100
AcDbSymbolTableRecord
100
AcDbDimStyleTableRecord
  2
ME10_DIM_12
 70
     0
 41
1.5
 42
0.25
 44
0.5
 73
     0
 74
     0
 77
     1
 78
     8
140
1.5
147
1.0
172
     1
173
     1
174
     1
175
     1
176
     2
177
     2
271
     2
178
     4
271
     2
340
339
  0
ENDTAB
  0
TABLE
  2
BLOCK_RECORD
  5
1
330
0
100
AcDbSymbolTable
 70
     8
  0
BLOCK_RECORD
  5
1F
330
1
100
AcDbSymbolTableRecord
100
AcDbBlockTableRecord
  2
*Model_Space
340
22
  0
BLOCK_RECORD
  5
1B
330
1
100
AcDbSymbolTableRecord
100
AcDbBlockTableRecord
  2
*Paper_Space
340
1E
  0
BLOCK_RECORD
  5
23
330
1
100
AcDbSymbolTableRecord
100
AcDbBlockTableRecord
  2
*Paper_Space0
340
26
  0
BLOCK_RECORD
  5
47
330
1
100
AcDbSymbolTableRecord
100
AcDbBlockTableRecord
  2
Spinotto__1
340
0
102
{BLKREFS
331
4B
102
}
  0
BLOCK_RECORD
  5
4A
330
1
100
AcDbSymbolTableRecord
100
AcDbBlockTableRecord
  2
GR_SP_03_3
340
0
102
{BLKREFS
331
55
102
}
  0
BLOCK_RECORD
  5
4E
330
1
100
AcDbSymbolTableRecord
100
AcDbBlockTableRecord
  2
Spinotto__2
340
0
102
{BLKREFS
331
52
102
}
  0
BLOCK_RECORD
  5
51
330
1
100
AcDbSymbolTableRecord
100
AcDbBlockTableRecord
  2
GR_SP_03_2
340
0
102
{BLKREFS
331
56
102
}
  0
BLOCK_RECORD
  5
341
330
1
100
AcDbSymbolTableRecord
100
AcDbBlockTableRecord
  2
*D5
340
0
  0
BLOCK_RECORD
  5
34C
330
1
100
AcDbSymbolTableRecord
100
AcDbBlockTableRecord
  2
*D6
340
0
  0
BLOCK_RECORD
  5
357
330
1
100
AcDbSymbolTableRecord
100
AcDbBlockTableRecord
  2
*D7
340
0
  0
ENDTAB
  0
ENDSEC
  0
SECTION
  2
BLOCKS
  0
BLOCK
  5
20
330
1F
100
AcDbEntity
  8
0
100
AcDbBlockBegin
  2
*Model_Space
 70
     0
 10
0.0
 20
0.0
 30
0.0
  3
*Model_Space
  1

  0
ENDBLK
  5
21
330
1F
100
AcDbEntity
  8
0
100
AcDbBlockEnd
  0
BLOCK
  5
1C
330
1B
100
AcDbEntity
 67
     1
  8
0
100
AcDbBlockBegin
  2
*Paper_Space
 70
     0
 10
0.0
 20
0.0
 30
0.0
  3
*Paper_Space
  1

  0
ENDBLK
  5
1D
330
1B
100
AcDbEntity
 67
     1
  8
0
100
AcDbBlockEnd
  0
BLOCK
  5
24
330
23
100
AcDbEntity
  8
0
100
AcDbBlockBegin
  2
*Paper_Space0
 70
     0
 10
0.0
 20
0.0
 30
0.0
  3
*Paper_Space0
  1

  0
ENDBLK
  5
25
330
23
100
AcDbEntity
  8
0
100
AcDbBlockEnd
  0
BLOCK
  5
48
330
47
100
AcDbEntity
  8
0
100
AcDbBlockBegin
  2
Spinotto__1
 70
     0
 10
-24.88270952585278
 20
77.49294004327369
 30
0.0
  3
Spinotto__1
  1

  0
LINE
  5
57
330
47
100
AcDbEntity
  8
0
  6
Continuous
 62
     7
100
AcDbLine
 10
-24.88270952585267
 20
78.29294004327373
 30
0.0
 11
-24.88270952585267
 21
77.49294004327369
 31
0.0
  0
LINE
  5
58
330
47
100
AcDbEntity
  8
0
  6
Continuous
 62
     7
100
AcDbLine
 10
-24.88270952585267
 20
79.69294004327371
 30
0.0
 11
-24.88270952585267
 21
78.29294004327373
 31
0.0
  0
LINE
  5
59
330
47
100
AcDbEntity
  8
0
  6
Continuous
 62
     7
100
AcDbLine
 10
-24.88270952585278
 20
83.09294004327369
 30
0.0
 11
-24.88270952585278
 21
84.86791159507509
 31
0.0
  0
ENDBLK
  5
49
330
47
100
AcDbEntity
  8
0
100
AcDbBlockEnd
  0
BLOCK
  5
4C
330
4A
100
AcDbEntity
  8
0
100
AcDbBlockBegin
  2
GR_SP_03_3
 70
     0
 10
-24.88270952585278
 20
77.49294004327369
 30
0.0
  3
GR_SP_03_3
  1

  0
INSERT
  5
4B
330
4A
100
AcDbEntity
  8
0
100
AcDbBlockReference
  2
Spinotto__1
 10
-24.88270952585278
 20
77.49294004327369
 30
0.0
  0
ENDBLK
  5
4D
330
4A
100
AcDbEntity
  8
0
100
AcDbBlockEnd
  0
BLOCK
  5
4F
330
4E
100
AcDbEntity
  8
0
100
AcDbBlockBegin
  2
Spinotto__2
 70
     0
 10
-24.88270952585278
 20
77.49294004327369
 30
0.0
  3
Spinotto__2
  1

  0
LINE
  5
5A
330
4E
100
AcDbEntity
  8
0
  6
Continuous
 62
     7
100
AcDbLine
 10
-24.88270952585267
 20
78.29294004327373
 30
0.0
 11
-24.88270952585267
 21
77.49294004327369
 31
0.0
  0
LINE
  5
5B
330
4E
100
AcDbEntity
  8
0
  6
Continuous
 62
     7
100
AcDbLine
 10
-24.88270952585267
 20
79.69294004327371
 30
0.0
 11
-24.88270952585267
 21
78.29294004327373
 31
0.0
  0
LINE
  5
5C
330
4E
100
AcDbEntity
  8
0
  6
Continuous
 62
     7
100
AcDbLine
 10
-24.88270952585278
 20
83.09294004327369
 30
0.0
 11
-24.88270952585278
 21
84.86791159507509
 31
0.0
  0
ENDBLK
  5
50
330
4E
100
AcDbEntity
  8
0
100
AcDbBlockEnd
  0
BLOCK
  5
53
330
51
100
AcDbEntity
  8
0
100
AcDbBlockBegin
  2
GR_SP_03_2
 70
     0
 10
-24.88270952585278
 20
77.49294004327369
 30
0.0
  3
GR_SP_03_2
  1

  0
INSERT
  5
52
330
51
100
AcDbEntity
  8
0
100
AcDbBlockReference
  2
Spinotto__2
 10
-24.88270952585278
 20
77.49294004327369
 30
0.0
  0
ENDBLK
  5
54
330
51
100
AcDbEntity
  8
0
100
AcDbBlockEnd
  0
BLOCK
  5
348
330
341
100
AcDbEntity
  8
0
100
AcDbBlockBegin
  2
*D5
 70
     1
 10
0.0
 20
0.0
 30
0.0
  3
*D5
  1

  0
LINE
  5
342
330
341
100
AcDbEntity
  8
1
  6
Continuous
 62
     2
100
AcDbLine
 10
-84.2583918153566
 20
94.49294004327392
 30
0.0
 11
-84.2583918153566
 21
62.99294004327369
 31
0.0
  0
LINE
  5
343
330
341
100
AcDbEntity
  8
1
  6
Continuous
 62
     2
100
AcDbLine
 10
-74.7827095258527
 20
94.49294004327392
 30
0.0
 11
-84.7583918153566
 21
94.49294004327392
 31
0.0
  0
LINE
  5
344
330
341
100
AcDbEntity
  8
1
  6
Continuous
 62
     2
100
AcDbLine
 10
-74.7827095258527
 20
62.99294004327369
 30
0.0
 11
-84.7583918153566
 21
62.99294004327369
 31
0.0
  0
SOLID
  5
345
330
341
100
AcDbEntity
  8
1
 62
     2
100
AcDbTrace
 10
-84.06091306897551
 20
92.99294004327392
 30
0.0
 11
-84.4558705617377
 21
92.99294004327392
 31
0.0
 12
-84.2583918153566
 22
94.49294004327392
 32
0.0
 13
-84.2583918153566
 23
94.49294004327392
 33
0.0
  0
SOLID
  5
346
330
341
100
AcDbEntity
  8
1
 62
     2
100
AcDbTrace
 10
-84.4558705617377
 20
64.49294004327369
 30
0.0
 11
-84.06091306897551
 21
64.49294004327369
 31
0.0
 12
-84.2583918153566
 22
62.99294004327369
 32
0.0
 13
-84.2583918153566
 23
62.99294004327369
 33
0.0
  0
MTEXT
  5
347
330
341
100
AcDbEntity
  8
1
 62
     4
100
AcDbMText
 10
-85.40839181535661
 20
76.9054400432738
 30
0.0
 40
1.5
 41
0.0
 71
     7
 72
     1
  1
31,5
  7
CONVERTER_12
 11
0.0
 21
1.0
 31
0.0
 73
     1
 44
0.60024009603842
  0
ENDBLK
  5
349
330
341
100
AcDbEntity
  8
0
100
AcDbBlockEnd
  0
BLOCK
  5
353
330
34C
100
AcDbEntity
  8
0
100
AcDbBlockBegin
  2
*D6
 70
     1
 10
0.0
 20
0.0
 30
0.0
  3
*D6
  1

  0
LINE
  5
34D
330
34C
100
AcDbEntity
  8
1
  6
Continuous
 62
     2
100
AcDbLine
 10
-33.88270952585301
 20
100.994807995181
 30
0.0
 11
-12.88270952585301
 21
100.994807995181
 31
0.0
  0
LINE
  5
34E
330
34C
100
AcDbEntity
  8
1
  6
Continuous
 62
     2
100
AcDbLine
 10
-33.88270952585301
 20
94.74294004327349
 30
0.0
 11
-33.88270952585301
 21
101.494807995181
 31
0.0
  0
LINE
  5
34F
330
34C
100
AcDbEntity
  8
1
  6
Continuous
 62
     2
100
AcDbLine
 10
-12.88270952585301
 20
94.742940043274
 30
0.0
 11
-12.88270952585301
 21
101.494807995181
 31
0.0
  0
SOLID
  5
350
330
34C
100
AcDbEntity
  8
1
 62
     2
100
AcDbTrace
 10
-32.38270952585301
 20
101.1922867415621
 30
0.0
 11
-32.38270952585301
 21
100.7973292487999
 31
0.0
 12
-33.88270952585301
 22
100.994807995181
 32
0.0
 13
-33.88270952585301
 23
100.994807995181
 33
0.0
  0
SOLID
  5
351
330
34C
100
AcDbEntity
  8
1
 62
     2
100
AcDbTrace
 10
-14.38270952585301
 20
100.7973292487999
 30
0.0
 11
-14.38270952585301
 21
101.1922867415621
 31
0.0
 12
-12.88270952585301
 22
100.994807995181
 32
0.0
 13
-12.88270952585301
 23
100.994807995181
 33
0.0
  0
MTEXT
  5
352
330
34C
100
AcDbEntity
  8
1
 62
     4
100
AcDbMText
 10
-24.28270952585301
 20
101.994807995181
 30
0.0
 40
1.5
 41
0.0
 71
     7
 72
     1
  1
21
  7
CONVERTER_12
 11
0.9999999999970619
 21
2.424068405545306E-6
 31
0.0
 73
     1
 44
0.60024009603842
  0
ENDBLK
  5
354
330
34C
100
AcDbEntity
  8
0
100
AcDbBlockEnd
  0
BLOCK
  5
35E
330
357
100
AcDbEntity
  8
0
100
AcDbBlockBegin
  2
*D7
 70
     1
 10
0.0
 20
0.0
 30
0.0
  3
*D7
  1

  0
LINE
  5
358
330
357
100
AcDbEntity
  8
1
  6
Continuous
 62
     2
100
AcDbLine
 10
-74.5327095258527
 20
100.994807995181
 30
0.0
 11
-53.5327095258527
 21
100.994807995181
 31
0.0
  0
LINE
  5
359
330
357
100
AcDbEntity
  8
1
  6
Continuous
 62
     2
100
AcDbLine
 10
-74.5327095258527
 20
92.24294004327494
 30
0.0
 11
-74.5327095258527
 21
101.494807995181
 31
0.0
  0
LINE
  5
35A
330
357
100
AcDbEntity
  8
1
  6
Continuous
 62
     2
100
AcDbLine
 10
-53.5327095258527
 20
94.7429400432737
 30
0.0
 11
-53.5327095258527
 21
101.494807995181
 31
0.0
  0
SOLID
  5
35B
330
357
100
AcDbEntity
  8
1
 62
     2
100
AcDbTrace
 10
-73.0327095258527
 20
101.1922867415621
 30
0.0
 11
-73.0327095258527
 21
100.7973292487999
 31
0.0
 12
-74.5327095258527
 22
100.994807995181
 32
0.0
 13
-74.5327095258527
 23
100.994807995181
 33
0.0
  0
SOLID
  5
35C
330
357
100
AcDbEntity
  8
1
 62
     2
100
AcDbTrace
 10
-55.0327095258527
 20
100.7973292487999
 30
0.0
 11
-55.0327095258527
 21
101.1922867415621
 31
0.0
 12
-53.5327095258527
 22
100.994807995181
 32
0.0
 13
-53.5327095258527
 23
100.994807995181
 33
0.0
  0
MTEXT
  5
35D
330
357
100
AcDbEntity
  8
1
 62
     4
100
AcDbMText
 10
-64.9327095258527
 20
101.994807995181
 30
0.0
 40
1.5
 41
0.0
 71
     7
 72
     1
  1
21
  7
CONVERTER_12
 11
0.9999999999970619
 21
2.424068405545306E-6
 31
0.0
 73
     1
 44
0.60024009603842
  0
ENDBLK
  5
35F
330
357
100
AcDbEntity
  8
0
100
AcDbBlockEnd
  0
ENDSEC
  0
SECTION
  2
ENTITIES
  0
INSERT
  5
55
330
1F
100
AcDbEntity
  8
0
100
AcDbBlockReference
  2
GR_SP_03_3
 10
-24.88270952585278
 20
77.49294004327369
 30
0.0
  0
INSERT
  5
56
330
1F
100
AcDbEntity
  8
0
100
AcDbBlockReference
  2
GR_SP_03_2
 10
-24.88270952585278
 20
77.49294004327369
 30
0.0
  0
LINE
  5
5D
102
{ACAD_REACTORS
330
371
102
}
330
1F
100
AcDbEntity
  8
1
  6
Continuous
 62
     7
100
AcDbLine
 10
-76.03270952585281
 20
46.47294004327394
 30
0.0
 11
-76.0327095258527
 21
30.47294004327387
 31
0.0
  0
LINE
  5
5E
102
{ACAD_REACTORS
330
371
102
}
330
1F
100
AcDbEntity
  8
1
  6
Continuous
 62
     7
100
AcDbLine
 10
-72.0327095258527
 20
26.47294004327387
 30
0.0
 11
-65.51617393953683
 21
26.47294004327387
 31
0.0
  0
LINE
  5
5F
102
{ACAD_REACTORS
330
371
102
}
330
1F
100
AcDbEntity
  8
1
  6
Continuous
 62
     7
100
AcDbLine
 10
-52.0327095258527
 20
30.47294004327387
 30
0.0
 11
-52.0327095258527
 21
46.47294004327394
 31
0.0
  0
LINE
  5
60
102
{ACAD_REACTORS
330
371
102
}
330
1F
100
AcDbEntity
  8
1
  6
Continuous
 62
     7
100
AcDbLine
 10
-56.0327095258527
 20
50.47294004327394
 30
0.0
 11
-72.03270952585281
 21
50.47294004327394
 31
0.0
  0
LINE
  5
61
102
{ACAD_REACTORS
330
362
102
}
330
1F
100
AcDbEntity
  8
1
  6
Continuous
 62
     2
100
AcDbLine
 10
-64.23270952585263
 20
39.19969009132405
 30
0.0
 11
-64.23270952585263
 21
37.74618999522358
 31
0.0
  0
LINE
  5
62
102
{ACAD_REACTORS
330
362
102
}
330
1F
100
AcDbEntity
  8
1
  6
Continuous
 62
     2
100
AcDbLine
 10
-64.78268177120158
 20
39.05553941915969
 30
0.0
 11
-64.3826817712016
 21
39.28630864992889
 31
0.0
  0
LINE
  5
63
102
{ACAD_REACTORS
330
362
102
}
330
1F
100
AcDbEntity
  8
1
  6
Continuous
 62
     2
100
AcDbLine
 10
-64.43270952585267
 20
39.02654908347939
 30
0.0
 11
-64.68273728050384
 21
38.88230230194996
 31
0.0
  0
LINE
  5
64
102
{ACAD_REACTORS
330
362
102
}
330
1F
100
AcDbEntity
  8
1
  6
Continuous
 62
     2
100
AcDbLine
 10
-64.43270952585267
 20
38.57294004327384
 30
0.0
 11
-64.43270952585267
 21
39.02654908347939
 31
0.0
  0
LINE
  5
65
102
{ACAD_REACTORS
330
362
102
}
330
1F
100
AcDbEntity
  8
1
  6
Continuous
 62
     2
100
AcDbLine
 10
-64.73270952585263
 20
38.57294004327384
 30
0.0
 11
-64.43270952585267
 21
38.57294004327384
 31
0.0
  0
LINE
  5
66
102
{ACAD_REACTORS
330
362
102
}
330
1F
100
AcDbEntity
  8
1
  6
Continuous
 62
     2
100
AcDbLine
 10
-64.43270952585267
 20
38.37294004327385
 30
0.0
 11
-64.73270952585263
 21
38.37294004327385
 31
0.0
  0
LINE
  5
67
102
{ACAD_REACTORS
330
362
102
}
330
1F
100
AcDbEntity
  8
1
  6
Continuous
 62
     2
100
AcDbLine
 10
-64.43270952585267
 20
37.91933100306824
 30
0.0
 11
-64.43270952585267
 21
38.37294004327385
 31
0.0
  0
LINE
  5
68
102
{ACAD_REACTORS
330
362
102
}
330
1F
100
AcDbEntity
  8
1
  6
Continuous
 62
     2
100
AcDbLine
 10
-64.68273728050384
 20
38.06357778459771
 30
0.0
 11
-64.43270952585267
 21
37.91933100306824
 31
0.0
  0
LINE
  5
69
102
{ACAD_REACTORS
330
362
102
}
330
1F
100
AcDbEntity
  8
1
  6
Continuous
 62
     2
100
AcDbLine
 10
-64.3826817712016
 20
37.65957143661874
 30
0.0
 11
-64.78268177120158
 21
37.89034066738794
 31
0.0
  0
LINE
  5
6A
102
{ACAD_REACTORS
330
365
102
}
330
1F
100
AcDbEntity
  8
1
  6
Continuous
 62
     2
100
AcDbLine
 10
-62.23270952585268
 20
38.96892086055485
 30
0.0
 11
-62.23270952585268
 21
37.97695922599278
 31
0.0
  0
LINE
  5
6B
102
{ACAD_REACTORS
330
365
102
}
330
1F
100
AcDbEntity
  8
1
  6
Continuous
 62
     2
100
AcDbLine
 10
-62.43270952585267
 20
38.9111644680948
 30
0.0
 11
-62.43270952585267
 21
38.96892086055485
 31
0.0
  0
LINE
  5
6C
102
{ACAD_REACTORS
330
365
102
}
330
1F
100
AcDbEntity
  8
1
  6
Continuous
 62
     2
100
AcDbLine
 10
-62.43270952585267
 20
37.97695922599278
 30
0.0
 11
-62.43270952585267
 21
38.9111644680948
 31
0.0
  0
LINE
  5
6D
102
{ACAD_REACTORS
330
364
102
}
330
1F
100
AcDbEntity
  8
1
  6
Continuous
 62
     2
100
AcDbLine
 10
-63.38273728050372
 20
39.69015480377511
 30
0.0
 11
-62.7327650351548
 21
39.31517081607377
 31
0.0
  0
LINE
  5
6E
102
{ACAD_REACTORS
330
364
102
}
330
1F
100
AcDbEntity
  8
1
  6
Continuous
 62
     2
100
AcDbLine
 10
-62.83270952585265
 20
39.14193369886406
 30
0.0
 11
-63.48268177120168
 21
39.51691768656534
 31
0.0
  0
LINE
  5
6F
102
{ACAD_REACTORS
330
364
102
}
330
1F
100
AcDbEntity
  8
1
  6
Continuous
 62
     2
100
AcDbLine
 10
-62.83270952585265
 20
37.74618999522358
 30
0.0
 11
-62.83270952585265
 21
39.14193369886406
 31
0.0
  0
LINE
  5
70
102
{ACAD_REACTORS
330
364
102
}
330
1F
100
AcDbEntity
  8
1
  6
Continuous
 62
     2
100
AcDbLine
 10
-62.6327095258526
 20
39.14193369886406
 30
0.0
 11
-62.6327095258526
 21
37.74618999522358
 31
0.0
  0
LINE
  5
71
102
{ACAD_REACTORS
330
363
102
}
330
1F
100
AcDbEntity
  8
1
  6
Continuous
 62
     2
100
AcDbLine
 10
-63.8843794207656
 20
37.46382991779215
 30
0.0
 11
-63.53270952585264
 21
38.07294004327384
 31
0.0
  0
LINE
  5
72
102
{ACAD_REACTORS
330
363
102
}
330
1F
100
AcDbEntity
  8
1
  6
Continuous
 62
     2
100
AcDbLine
 10
-64.03270952585264
 20
39.43045932209328
 30
0.0
 11
-64.03270952585264
 21
37.50357484966344
 31
0.0
  0
LINE
  5
73
102
{ACAD_REACTORS
330
363
102
}
330
1F
100
AcDbEntity
  8
1
  6
Continuous
 62
     2
100
AcDbLine
 10
-63.83270952585265
 20
38.47294004327384
 30
0.0
 11
-63.83270952585265
 21
39.43045932209328
 31
0.0
  0
LINE
  5
74
102
{ACAD_REACTORS
330
363
102
}
330
1F
100
AcDbEntity
  8
1
  6
Continuous
 62
     2
100
AcDbLine
 10
-63.23270952585263
 20
38.96866452148397
 30
0.0
 11
-63.23270952585263
 21
38.47294004327384
 31
0.0
  0
LINE
  5
75
102
{ACAD_REACTORS
330
363
102
}
330
1F
100
AcDbEntity
  8
1
  6
Continuous
 62
     2
100
AcDbLine
 10
-63.03270952585264
 20
38.47294004327384
 30
0.0
 11
-63.03270952585264
 21
38.96866452148397
 31
0.0
  0
LINE
  5
76
102
{ACAD_REACTORS
330
363
102
}
330
1F
100
AcDbEntity
  8
1
  6
Continuous
 62
     2
100
AcDbLine
 10
-63.18103963093968
 20
37.46382991779215
 30
0.0
 11
-63.53270952585264
 21
38.07294004327384
 31
0.0
  0
LINE
  5
77
102
{ACAD_REACTORS
330
363
102
}
330
1F
100
AcDbEntity
  8
1
  6
Continuous
 62
     2
100
AcDbLine
 10
-63.03270952585264
 20
38.47294004327384
 30
0.0
 11
-63.03270952585264
 21
37.50357484966344
 31
0.0
  0
LINE
  5
78
330
1F
100
AcDbEntity
  8
1
  6
Continuous
 62
     2
100
AcDbLine
 10
-63.53270952585264
 20
39.97294004327384
 30
0.0
 11
-61.00777894331016
 21
38.51624932257625
 31
0.0
  0
LINE
  5
79
330
1F
100
AcDbEntity
  8
1
  6
Continuous
 62
     2
100
AcDbLine
 10
-66.05764010839512
 20
38.51624932257625
 30
0.0
 11
-63.53270952585264
 21
39.97294004327384
 31
0.0
  0
LINE
  5
7A
330
1F
100
AcDbEntity
  8
1
  6
Continuous
 62
     2
100
AcDbLine
 10
-63.53270952585264
 20
36.97294004327384
 30
0.0
 11
-66.05764010839512
 21
38.42963076397138
 31
0.0
  0
LINE
  5
7B
330
1F
100
AcDbEntity
  8
1
  6
Continuous
 62
     2
100
AcDbLine
 10
-61.00777894331016
 20
38.42963076397138
 30
0.0
 11
-63.53270952585264
 21
36.97294004327384
 31
0.0
  0
LINE
  5
7C
102
{ACAD_REACTORS
330
363
102
}
330
1F
100
AcDbEntity
  8
1
  6
Continuous
 62
     2
100
AcDbLine
 10
-63.23270952585263
 20
37.95332480100314
 30
0.0
 11
-63.23270952585263
 21
38.47294004327384
 31
0.0
  0
LINE
  5
7D
102
{ACAD_REACTORS
330
363
102
}
330
1F
100
AcDbEntity
  8
1
  6
Continuous
 62
     2
100
AcDbLine
 10
-63.48940825566338
 20
38.39794004327383
 30
0.0
 11
-63.23270952585263
 21
37.95332480100314
 31
0.0
  0
LINE
  5
7E
102
{ACAD_REACTORS
330
363
102
}
330
1F
100
AcDbEntity
  8
1
  6
Continuous
 62
     2
100
AcDbLine
 10
-63.83270952585265
 20
37.95332480100314
 30
0.0
 11
-63.57601079604179
 21
38.39794004327383
 31
0.0
  0
LINE
  5
7F
102
{ACAD_REACTORS
330
363
102
}
330
1F
100
AcDbEntity
  8
1
  6
Continuous
 62
     2
100
AcDbLine
 10
-63.83270952585265
 20
38.47294004327384
 30
0.0
 11
-63.83270952585265
 21
37.95332480100314
 31
0.0
  0
LINE
  5
80
102
{ACAD_REACTORS
330
371
102
}
330
1F
100
AcDbEntity
  8
1
  6
Continuous
 62
     7
100
AcDbLine
 10
-59.23270952585268
 20
27.9729400432739
 30
0.0
 11
-61.83270952585297
 21
27.9729400432739
 31
0.0
  0
LINE
  5
81
330
1F
100
AcDbEntity
  8
1
  6
Continuous
 62
     7
100
AcDbLine
 10
-70.64646669636933
 20
27.97294004327382
 30
0.0
 11
-64.44505844282857
 21
33.55671311510381
 31
0.0
  0
LINE
  5
82
330
1F
100
AcDbEntity
  8
1
  6
Continuous
 62
     7
100
AcDbLine
 10
-64.33403711415072
 20
35.67512626285819
 30
0.0
 11
-66.80982035767848
 21
38.42476211712449
 31
0.0
  0
LINE
  5
83
330
1F
100
AcDbEntity
  8
1
  6
Continuous
 62
     7
100
AcDbLine
 10
-68.9282335054328
 20
38.53578344580229
 30
0.0
 11
-74.5327095258527
 21
33.48949057084628
 31
0.0
  0
LINE
  5
84
102
{ACAD_REACTORS
330
366
102
}
330
1F
100
AcDbEntity
  8
1
  6
Continuous
 62
     7
100
AcDbLine
 10
-69.08321297043797
 20
33.55196148214601
 30
0.0
 11
-67.91623538369505
 21
33.5262066371692
 31
0.0
  0
LINE
  5
85
102
{ACAD_REACTORS
330
366
102
}
330
1F
100
AcDbEntity
  8
1
  6
Continuous
 62
     7
100
AcDbLine
 10
-67.91623538369505
 20
33.5262066371692
 30
0.0
 11
-68.98684435386919
 21
34.71523835793298
 31
0.0
  0
LINE
  5
86
102
{ACAD_REACTORS
330
366
102
}
330
1F
100
AcDbEntity
  8
1
  6
Continuous
 62
     7
100
AcDbLine
 10
-68.98684435386919
 20
34.71523835793298
 30
0.0
 11
-69.08321297043797
 21
33.55196148214601
 31
0.0
  0
LINE
  5
87
102
{ACAD_REACTORS
330
367
102
}
330
1F
100
AcDbEntity
  8
1
  6
Continuous
 62
     7
100
AcDbLine
 10
-57.78803115638233
 20
33.72074836678991
 30
0.0
 11
-58.95281272373087
 21
33.7968003251163
 31
0.0
  0
LINE
  5
88
102
{ACAD_REACTORS
330
367
102
}
330
1F
100
AcDbEntity
  8
1
  6
Continuous
 62
     7
100
AcDbLine
 10
-58.95819707897307
 20
32.6295509906899
 30
0.0
 11
-57.78803115638233
 21
33.72074836678991
 31
0.0
  0
LINE
  5
89
102
{ACAD_REACTORS
330
367
102
}
330
1F
100
AcDbEntity
  8
1
  6
Continuous
 62
     7
100
AcDbLine
 10
-58.95281272373087
 20
33.7968003251163
 30
0.0
 11
-58.95819707897307
 21
32.6295509906899
 31
0.0
  0
LINE
  5
8A
102
{ACAD_REACTORS
330
368
102
}
330
1F
100
AcDbEntity
  8
1
  6
Continuous
 62
     7
100
AcDbLine
 10
-69.16156774916648
 20
43.60179826658749
 30
0.0
 11
-69.19692308822592
 21
44.7685244555454
 31
0.0
  0
LINE
  5
8B
102
{ACAD_REACTORS
330
368
102
}
330
1F
100
AcDbEntity
  8
1
  6
Continuous
 62
     7
100
AcDbLine
 10
-69.19692308822592
 20
44.7685244555454
 30
0.0
 11
-70.32829393812433
 21
43.63715360564681
 31
0.0
  0
LINE
  5
8C
102
{ACAD_REACTORS
330
368
102
}
330
1F
100
AcDbEntity
  8
1
  6
Continuous
 62
     7
100
AcDbLine
 10
-70.32829393812433
 20
43.63715360564681
 30
0.0
 11
-69.16156774916648
 21
43.60179826658749
 31
0.0
  0
LINE
  5
8D
330
1F
100
AcDbEntity
  8
1
  6
Continuous
 62
     7
100
AcDbLine
 10
-69.82783519811552
 20
35.36839376335721
 30
0.0
 11
-71.18923003708035
 21
35.36839376335721
 31
0.0
  0
LINE
  5
8E
330
1F
100
AcDbEntity
  8
1
  6
Continuous
 62
     7
100
AcDbLine
 10
-70.50680433858578
 20
34.7302664680558
 30
0.0
 11
-70.50680433858578
 21
35.36839376335721
 31
0.0
  0
LINE
  5
8F
330
1F
100
AcDbEntity
  8
1
  6
Continuous
 62
     7
100
AcDbLine
 10
-70.06744068977333
 20
35.66790062792951
 30
0.0
 11
-70.94962454542254
 21
35.66790062792951
 31
0.0
  0
LINE
  5
90
330
1F
100
AcDbEntity
  8
1
  6
Continuous
 62
     7
100
AcDbLine
 10
-70.30704618143109
 20
35.96740749250171
 30
0.0
 11
-70.71001905376473
 21
35.96740749250171
 31
0.0
  0
LINE
  5
91
102
{ACAD_REACTORS
330
369
102
}
330
1F
100
AcDbEntity
  8
1
  6
Continuous
 62
     7
100
AcDbLine
 10
-58.90385130253885
 20
43.60179826658749
 30
0.0
 11
-57.737125113581
 21
43.63715360564681
 31
0.0
  0
LINE
  5
92
102
{ACAD_REACTORS
330
369
102
}
330
1F
100
AcDbEntity
  8
1
  6
Continuous
 62
     7
100
AcDbLine
 10
-57.737125113581
 20
43.63715360564681
 30
0.0
 11
-58.86849596347948
 21
44.76852445554531
 31
0.0
  0
LINE
  5
93
102
{ACAD_REACTORS
330
369
102
}
330
1F
100
AcDbEntity
  8
1
  6
Continuous
 62
     7
100
AcDbLine
 10
-58.86849596347948
 20
44.76852445554531
 30
0.0
 11
-58.90385130253885
 21
43.60179826658749
 31
0.0
  0
LINE
  5
94
330
1F
100
AcDbEntity
  8
0
  6
Continuous
 62
     7
100
AcDbLine
 10
-56.46433290744524
 20
43.7785749618843
 30
0.0
 11
-54.69656595447897
 21
45.54634191485059
 31
0.0
  0
LINE
  5
95
330
1F
100
AcDbEntity
  8
0
  6
Continuous
 62
     7
100
AcDbLine
 10
-54.69656595447897
 20
45.687763271088
 30
0.0
 11
-56.81788629803857
 21
47.8090836146476
 31
0.0
  0
LINE
  5
96
330
1F
100
AcDbEntity
  8
0
  6
Continuous
 62
     7
100
AcDbLine
 10
-58.65636392912354
 20
45.9706059835626
 30
0.0
 11
-58.72707460724224
 21
46.0413166616813
 31
0.0
  0
LINE
  5
97
330
1F
100
AcDbEntity
  8
0
  6
Continuous
 62
     7
100
AcDbLine
 10
-56.88859697615727
 20
43.3543108931724
 30
0.0
 11
-56.46433290744524
 21
43.7785749618843
 31
0.0
  0
LINE
  5
98
330
1F
100
AcDbEntity
  8
0
  6
Continuous
 62
     7
100
AcDbLine
 10
-56.46433290744524
 20
43.7785749618843
 30
0.0
 11
-56.535043585564
 21
43.84928564000291
 31
0.0
  0
LINE
  5
99
330
1F
100
AcDbEntity
  8
0
  6
Continuous
 62
     7
100
AcDbLine
 10
-59.15133867595422
 20
45.47563123673201
 30
0.0
 11
-57.03001833239456
 21
43.3543108931724
 31
0.0
  0
LINE
  5
9A
330
1F
100
AcDbEntity
  8
0
  6
Continuous
 62
     7
100
AcDbLine
 10
-58.65636392912354
 20
45.9706059835626
 30
0.0
 11
-56.535043585564
 21
43.84928564000291
 31
0.0
  0
LINE
  5
9B
330
1F
100
AcDbEntity
  8
0
  6
Continuous
 62
     7
100
AcDbLine
 10
-58.72707460724224
 20
46.0413166616813
 30
0.0
 11
-56.95930765427586
 21
47.8090836146476
 31
0.0
  0
LINE
  5
9C
330
1F
100
AcDbEntity
  8
0
  6
Continuous
 62
     7
100
AcDbLine
 10
-59.15133867595422
 20
45.61705259296929
 30
0.0
 11
-58.72707460724224
 21
46.0413166616813
 31
0.0
  0
LINE
  5
9D
330
1F
100
AcDbEntity
  8
0
  6
Continuous
 62
     7
100
AcDbLine
 10
-69.40905512258168
 20
45.97060598356249
 30
0.0
 11
-71.53037546614128
 21
43.84928564000291
 31
0.0
  0
LINE
  5
9E
330
1F
100
AcDbEntity
  8
0
  6
Continuous
 62
     7
100
AcDbLine
 10
-71.03540071931077
 20
43.35431089317229
 30
0.0
 11
-68.91408037575111
 21
45.47563123673201
 31
0.0
  0
LINE
  5
9F
330
1F
100
AcDbEntity
  8
0
  6
Continuous
 62
     7
100
AcDbLine
 10
-73.36885309722636
 20
45.54634191485071
 30
0.0
 11
-71.60108614425998
 21
43.7785749618843
 31
0.0
  0
LINE
  5
A0
330
1F
100
AcDbEntity
  8
0
  6
Continuous
 62
     7
100
AcDbLine
 10
-71.24753275366676
 20
47.8090836146476
 30
0.0
 11
-73.36885309722636
 21
45.687763271088
 31
0.0
  0
LINE
  5
A1
330
1F
100
AcDbEntity
  8
0
  6
Continuous
 62
     7
100
AcDbLine
 10
-69.33834444446309
 20
46.0413166616813
 30
0.0
 11
-68.91408037575111
 21
45.61705259296929
 31
0.0
  0
LINE
  5
A2
330
1F
100
AcDbEntity
  8
0
  6
Continuous
 62
     7
100
AcDbLine
 10
-69.33834444446309
 20
46.0413166616813
 30
0.0
 11
-69.40905512258168
 21
45.97060598356249
 31
0.0
  0
LINE
  5
A3
330
1F
100
AcDbEntity
  8
0
  6
Continuous
 62
     7
100
AcDbLine
 10
-71.10611139742942
 20
47.8090836146476
 30
0.0
 11
-69.33834444446309
 21
46.0413166616813
 31
0.0
  0
LINE
  5
A4
330
1F
100
AcDbEntity
  8
0
  6
Continuous
 62
     7
100
AcDbLine
 10
-67.64128816961569
 20
40.10161969971509
 30
0.0
 11
-69.26763376634342
 21
41.7279652964443
 31
0.0
  0
LINE
  5
A5
330
1F
100
AcDbEntity
  8
0
  6
Continuous
 62
     7
100
AcDbLine
 10
-71.53037546614128
 20
43.84928564000291
 30
0.0
 11
-71.60108614425998
 21
43.7785749618843
 31
0.0
  0
LINE
  5
A6
330
1F
100
AcDbEntity
  8
0
  6
Continuous
 62
     7
100
AcDbLine
 10
-65.66138918229349
 20
42.0815186870361
 30
0.0
 11
-67.28773477903748
 21
43.707864283749
 31
0.0
  0
LINE
  5
A7
330
1F
100
AcDbEntity
  8
0
  6
Continuous
 62
     7
100
AcDbLine
 10
-65.66138918229349
 20
42.0815186870361
 30
0.0
 11
-67.64128816961569
 21
40.10161969971509
 31
0.0
  0
LINE
  5
A8
330
1F
100
AcDbEntity
  8
0
  6
Continuous
 62
     7
100
AcDbLine
 10
-69.26763376634342
 20
41.7279652964443
 30
0.0
 11
-67.28773477903748
 21
43.707864283749
 31
0.0
  0
LINE
  5
A9
330
1F
100
AcDbEntity
  8
0
  6
Continuous
 62
     7
100
AcDbLine
 10
-71.60108614425998
 20
43.7785749618843
 30
0.0
 11
-71.17682207554806
 21
43.35431089317229
 31
0.0
  0
LINE
  5
AA
330
1F
100
AcDbEntity
  8
0
  6
Continuous
 62
     7
100
AcDbLine
 10
-60.42413088208998
 20
40.10161969971421
 30
0.0
 11
-58.79778528535998
 21
41.7279652964424
 31
0.0
  0
LINE
  5
AB
330
1F
100
AcDbEntity
  8
0
  6
Continuous
 62
     7
100
AcDbLine
 10
-58.79778528535998
 20
41.7279652964424
 30
0.0
 11
-60.77768427268417
 21
43.70786428376659
 31
0.0
  0
LINE
  5
AC
330
1F
100
AcDbEntity
  8
0
  6
Continuous
 62
     7
100
AcDbLine
 10
-60.77768427268417
 20
43.70786428376659
 30
0.0
 11
-62.40402986941139
 21
42.08151868703701
 31
0.0
  0
LINE
  5
AD
330
1F
100
AcDbEntity
  8
0
  6
Continuous
 62
     7
100
AcDbLine
 10
-62.40402986941139
 20
42.08151868703701
 30
0.0
 11
-60.42413088208998
 21
40.10161969971421
 31
0.0
  0
LINE
  5
AE
330
1F
100
AcDbEntity
  8
0
  6
Continuous
 62
     7
100
AcDbLine
 10
-56.59408520518646
 20
33.46679351721469
 30
0.0
 11
-56.52094983502447
 21
33.53499335322099
 31
0.0
  0
LINE
  5
AF
330
1F
100
AcDbEntity
  8
0
  6
Continuous
 62
     7
100
AcDbLine
 10
-58.78814631004401
 20
31.42079843702718
 30
0.0
 11
-58.86128168020589
 21
31.35259860102088
 31
0.0
  0
LINE
  5
B0
330
1F
100
AcDbEntity
  8
0
  6
Continuous
 62
     7
100
AcDbLine
 10
-58.78814631004401
 20
31.42079843702718
 30
0.0
 11
-56.59408520518646
 21
33.46679351721469
 31
0.0
  0
LINE
  5
B1
330
1F
100
AcDbEntity
  8
0
  6
Continuous
 62
     7
100
AcDbLine
 10
-57.07148405723019
 20
33.9787411083481
 30
0.0
 11
-59.26554516208769
 21
31.93274602816059
 31
0.0
  0
LINE
  5
B2
330
1F
100
AcDbEntity
  8
0
  6
Continuous
 62
     7
100
AcDbLine
 10
-57.01495057388145
 20
29.5192788128174
 30
0.0
 11
-54.82088946902395
 21
31.56527389300488
 31
0.0
  0
LINE
  5
B3
330
1F
100
AcDbEntity
  8
0
  6
Continuous
 62
     7
100
AcDbLine
 10
-58.86128168020589
 20
31.35259860102088
 30
0.0
 11
-57.15628578004971
 21
29.524214346973
 31
0.0
  0
LINE
  5
B4
330
1F
100
AcDbEntity
  8
0
  6
Continuous
 62
     7
100
AcDbLine
 10
-59.27048069624335
 20
31.79141082199249
 30
0.0
 11
-58.86128168020589
 21
31.35259860102088
 31
0.0
  0
LINE
  5
B5
330
1F
100
AcDbEntity
  8
0
  6
Continuous
 62
     7
100
AcDbLine
 10
-56.52094983502447
 20
33.53499335322099
 30
0.0
 11
-56.93014885106204
 21
33.97380557419249
 31
0.0
  0
LINE
  5
B6
330
1F
100
AcDbEntity
  8
0
  6
Continuous
 62
     7
100
AcDbLine
 10
-54.81595393486829
 20
31.706609099173
 30
0.0
 11
-56.52094983502447
 21
33.53499335322099
 31
0.0
  0
LINE
  5
B7
330
1F
100
AcDbEntity
  8
0
  6
Continuous
 62
     7
100
AcDbLine
 10
-58.78141549154385
 20
35.66579015622632
 30
0.0
 11
-60.82920585607458
 21
33.75619474805519
 31
0.0
  0
LINE
  5
B8
330
1F
100
AcDbEntity
  8
0
  6
Continuous
 62
     7
100
AcDbLine
 10
-58.78141549154385
 20
35.66579015622632
 30
0.0
 11
-60.35001171968538
 21
37.34790366995248
 31
0.0
  0
LINE
  5
B9
330
1F
100
AcDbEntity
  8
0
  6
Continuous
 62
     7
100
AcDbLine
 10
-60.35001171968538
 20
37.34790366995248
 30
0.0
 11
-62.39780208422009
 21
35.43830826177649
 31
0.0
  0
LINE
  5
BA
330
1F
100
AcDbEntity
  8
0
  6
Continuous
 62
     7
100
AcDbLine
 10
-62.39780208422009
 20
35.43830826177649
 30
0.0
 11
-60.82920585607458
 21
33.75619474805519
 31
0.0
  0
LINE
  5
BB
330
1F
100
AcDbEntity
  8
0
  6
Continuous
 62
     7
100
AcDbLine
 10
-66.70469913376657
 20
33.6751358656936
 30
0.0
 11
-68.71209095284321
 21
35.9045703421258
 31
0.0
  0
LINE
  5
BC
330
1F
100
AcDbEntity
  8
0
  6
Continuous
 62
     7
100
AcDbLine
 10
-67.08367296841716
 20
33.19934301933058
 30
0.0
 11
-66.63778607313078
 21
33.60082138314591
 31
0.0
  0
LINE
  5
BD
330
1F
100
AcDbEntity
  8
0
  6
Continuous
 62
     7
100
AcDbLine
 10
-66.63778607313078
 20
33.60082138314591
 30
0.0
 11
-64.77992400943727
 21
35.27364789904301
 31
0.0
  0
LINE
  5
BE
330
1F
100
AcDbEntity
  8
0
  6
Continuous
 62
     7
100
AcDbLine
 10
-64.77252258752539
 20
35.41487544222668
 30
0.0
 11
-66.77991440660197
 21
37.6443099186588
 31
0.0
  0
LINE
  5
BF
330
1F
100
AcDbEntity
  8
0
  6
Continuous
 62
     7
100
AcDbLine
 10
-66.63778607313078
 20
33.60082138314591
 30
0.0
 11
-66.70469913376657
 21
33.6751358656936
 31
0.0
  0
LINE
  5
C0
330
1F
100
AcDbEntity
  8
0
  6
Continuous
 62
     7
100
AcDbLine
 10
-68.77900401347905
 20
35.97888482467358
 30
0.0
 11
-66.92114194978559
 21
37.65171134057068
 31
0.0
  0
LINE
  5
C1
330
1F
100
AcDbEntity
  8
0
  6
Continuous
 62
     7
100
AcDbLine
 10
-68.71209095284321
 20
35.9045703421258
 30
0.0
 11
-68.77900401347905
 21
35.97888482467358
 31
0.0
  0
LINE
  5
C2
330
1F
100
AcDbEntity
  8
0
  6
Continuous
 62
     7
100
AcDbLine
 10
-69.22489090876549
 20
35.57740646085819
 30
0.0
 11
-68.77900401347905
 21
35.97888482467358
 31
0.0
  0
LINE
  5
C3
330
1F
100
AcDbEntity
  8
0
  6
Continuous
 62
     7
100
AcDbLine
 10
-69.23229233067737
 20
35.4361789176746
 30
0.0
 11
-67.22490051160078
 21
33.2067444412424
 31
0.0
  0
LINE
  5
C4
330
1F
100
AcDbEntity
  8
0
  6
Continuous
 62
     7
100
AcDbLine
 10
-70.94892685118607
 20
33.75595097986469
 30
0.0
 11
-72.65815994978512
 21
32.21695058524029
 31
0.0
  0
LINE
  5
C5
330
1F
100
AcDbEntity
  8
0
  6
Continuous
 62
     7
100
AcDbLine
 10
-70.94892685118607
 20
33.75595097986469
 30
0.0
 11
-69.0753611533823
 21
31.67514546852909
 31
0.0
  0
LINE
  5
C6
330
1F
100
AcDbEntity
  8
0
  6
Continuous
 62
     7
100
AcDbLine
 10
-70.78459425197981
 20
30.13614507390322
 30
0.0
 11
-69.0753611533823
 21
31.67514546852909
 31
0.0
  0
LINE
  5
C7
330
1F
100
AcDbEntity
  8
0
  6
Continuous
 62
     7
100
AcDbLine
 10
-72.65815994978512
 20
32.21695058524029
 30
0.0
 11
-70.78459425197981
 21
30.13614507390322
 31
0.0
  0
LINE
  5
C8
102
{ACAD_REACTORS
330
371
102
}
330
1F
100
AcDbEntity
  8
0
  6
Continuous
 62
     7
100
AcDbLine
 10
-71.5327095258527
 20
48.9729400432739
 30
0.0
 11
-56.5327095258527
 21
48.9729400432739
 31
0.0
  0
LINE
  5
C9
330
1F
100
AcDbEntity
  8
0
  6
Continuous
 62
     7
100
AcDbLine
 10
-73.5327095258527
 20
40.0729400432739
 30
0.0
 11
-73.5327095258527
 21
36.87294004327391
 31
0.0
  0
LINE
  5
CA
330
1F
100
AcDbEntity
  8
0
  6
Continuous
 62
     7
100
AcDbLine
 10
-73.0327095258527
 20
40.0729400432739
 30
0.0
 11
-73.0327095258527
 21
36.87294004327391
 31
0.0
  0
LINE
  5
CB
330
1F
100
AcDbEntity
  8
0
  6
Continuous
 62
     7
100
AcDbLine
 10
-67.0327095258527
 20
29.7729400432738
 30
0.0
 11
-68.83270952585265
 21
27.9729400432739
 31
0.0
  0
LINE
  5
CC
330
1F
100
AcDbEntity
  8
0
  6
Continuous
 62
     7
100
AcDbLine
 10
-61.0327095258527
 20
29.7729400432738
 30
0.0
 11
-67.0327095258527
 21
29.7729400432738
 31
0.0
  0
LINE
  5
CD
102
{ACAD_REACTORS
330
371
102
}
330
1F
100
AcDbEntity
  8
0
  6
Continuous
 62
     7
100
AcDbLine
 10
-68.83270952585265
 20
27.9729400432739
 30
0.0
 11
-71.5327095258527
 21
27.9729400432739
 31
0.0
  0
LINE
  5
CE
102
{ACAD_REACTORS
330
371
102
}
330
1F
100
AcDbEntity
  8
0
  6
Continuous
 62
     7
100
AcDbLine
 10
-56.5327095258527
 20
27.9729400432739
 30
0.0
 11
-59.23270952585268
 21
27.9729400432739
 31
0.0
  0
LINE
  5
CF
330
1F
100
AcDbEntity
  8
0
  6
Continuous
 62
     7
100
AcDbLine
 10
-59.23270952585268
 20
27.9729400432739
 30
0.0
 11
-61.0327095258527
 21
29.7729400432738
 31
0.0
  0
LINE
  5
D0
330
1F
100
AcDbEntity
  8
0
  6
Continuous
 62
     7
100
AcDbLine
 10
-73.0327095258527
 20
36.87294004327391
 30
0.0
 11
-74.5327095258527
 21
36.87294004327391
 31
0.0
  0
LINE
  5
D1
330
1F
100
AcDbEntity
  8
0
  6
Continuous
 62
     7
100
AcDbLine
 10
-74.5327095258527
 20
40.0729400432739
 30
0.0
 11
-73.0327095258527
 21
40.0729400432739
 31
0.0
  0
LINE
  5
D2
330
1F
100
AcDbEntity
  8
0
  6
Continuous
 62
     7
100
AcDbLine
 10
-53.5327095258527
 20
36.87294004327385
 30
0.0
 11
-55.0327095258527
 21
36.87294004327385
 31
0.0
  0
LINE
  5
D3
330
1F
100
AcDbEntity
  8
0
  6
Continuous
 62
     7
100
AcDbLine
 10
-54.5327095258527
 20
40.0729400432739
 30
0.0
 11
-54.5327095258527
 21
36.87294004327391
 31
0.0
  0
LINE
  5
D4
330
1F
100
AcDbEntity
  8
0
  6
Continuous
 62
     7
100
AcDbLine
 10
-55.0327095258527
 20
40.0729400432739
 30
0.0
 11
-53.5327095258527
 21
40.0729400432739
 31
0.0
  0
LINE
  5
D5
330
1F
100
AcDbEntity
  8
0
  6
Continuous
 62
     7
100
AcDbLine
 10
-55.0327095258527
 20
36.87294004327385
 30
0.0
 11
-55.0327095258527
 21
40.0729400432739
 31
0.0
  0
LINE
  5
D6
102
{ACAD_REACTORS
330
371
102
}
330
1F
100
AcDbEntity
  8
0
  6
Continuous
 62
     7
100
AcDbLine
 10
-74.5327095258527
 20
30.9729400432739
 30
0.0
 11
-74.5327095258527
 21
45.9729400432739
 31
0.0
  0
LINE
  5
D7
102
{ACAD_REACTORS
330
371
102
}
330
1F
100
AcDbEntity
  8
0
  6
Continuous
 62
     7
100
AcDbLine
 10
-53.5327095258527
 20
45.9729400432739
 30
0.0
 11
-53.5327095258527
 21
30.9729400432739
 31
0.0
  0
LINE
  5
D8
330
1F
100
AcDbEntity
  8
1
  6
Continuous
 62
     4
100
AcDbLine
 10
-70.1530232527971
 20
128.4727594705568
 30
0.0
 11
-69.6792190096029
 21
128.4727594705568
 31
0.0
  0
LINE
  5
D9
330
1F
100
AcDbEntity
  8
1
  6
Continuous
 62
     4
100
AcDbLine
 10
-70.4014942661964
 20
128.8149361443809
 30
0.0
 11
-69.43074799620321
 21
128.8149361443809
 31
0.0
  0
LINE
  5
DA
330
1F
100
AcDbEntity
  8
1
  6
Continuous
 62
     4
100
AcDbLine
 10
-70.6499652795962
 20
129.1571128182055
 30
0.0
 11
-69.18227698280323
 21
129.1571128182055
 31
0.0
  0
LINE
  5
DB
330
1F
100
AcDbEntity
  8
1
  6
Continuous
 62
     4
100
AcDbLine
 10
-69.91612113119949
 20
129.8710067095018
 30
0.0
 11
-69.91612113119949
 21
129.1571128182055
 31
0.0
  0
LINE
  5
DC
330
1F
100
AcDbEntity
  8
1
  6
Continuous
 62
     7
100
AcDbLine
 10
-24.88270952585267
 20
79.69294004327371
 30
0.0
 11
-21.88270952585267
 21
79.69294004327377
 31
0.0
  0
LINE
  5
DD
102
{ACAD_REACTORS
330
36A
102
}
330
1F
100
AcDbEntity
  8
1
  6
Continuous
 62
     7
100
AcDbLine
 10
-11.38270952585238
 20
68.842940043274
 30
0.0
 11
-11.38270952585238
 21
67.14294004327401
 31
0.0
  0
LINE
  5
DE
102
{ACAD_REACTORS
330
36A
102
}
330
1F
100
AcDbEntity
  8
1
  6
Continuous
 62
     7
100
AcDbLine
 10
-35.38270952585221
 20
67.14294004327401
 30
0.0
 11
-35.38270952585221
 21
68.842940043274
 31
0.0
  0
LINE
  5
DF
102
{ACAD_REACTORS
330
36A
102
}
330
1F
100
AcDbEntity
  8
1
  6
Continuous
 62
     7
100
AcDbLine
 10
-11.6827095258524
 20
69.14294004327401
 30
0.0
 11
-35.08270952585232
 21
69.14294004327401
 31
0.0
  0
LINE
  5
E0
102
{ACAD_REACTORS
330
36A
102
}
330
1F
100
AcDbEntity
  8
1
  6
Continuous
 62
     7
100
AcDbLine
 10
-11.6827095258524
 20
66.842940043274
 30
0.0
 11
-35.08270952585232
 21
66.842940043274
 31
0.0
  0
LINE
  5
E1
102
{ACAD_REACTORS
330
36B
102
}
330
1F
100
AcDbEntity
  8
1
  6
Continuous
 62
     7
100
AcDbLine
 10
-52.33270952585248
 20
66.842940043274
 30
0.0
 11
-75.7327095258524
 21
66.842940043274
 31
0.0
  0
LINE
  5
E2
102
{ACAD_REACTORS
330
36B
102
}
330
1F
100
AcDbEntity
  8
1
  6
Continuous
 62
     7
100
AcDbLine
 10
-52.33270952585248
 20
69.14294004327401
 30
0.0
 11
-75.7327095258524
 21
69.14294004327401
 31
0.0
  0
LINE
  5
E3
102
{ACAD_REACTORS
330
36B
102
}
330
1F
100
AcDbEntity
  8
1
  6
Continuous
 62
     7
100
AcDbLine
 10
-76.0327095258523
 20
67.14294004327401
 30
0.0
 11
-76.0327095258523
 21
68.842940043274
 31
0.0
  0
LINE
  5
E4
102
{ACAD_REACTORS
330
36B
102
}
330
1F
100
AcDbEntity
  8
1
  6
Continuous
 62
     7
100
AcDbLine
 10
-52.03270952585258
 20
68.842940043274
 30
0.0
 11
-52.03270952585258
 21
67.14294004327401
 31
0.0
  0
LINE
  5
E5
330
1F
100
AcDbEntity
  8
0
  6
Continuous
 62
     7
100
AcDbLine
 10
-24.98270952585298
 20
91.9929400432748
 30
0.0
 11
-24.98270952585281
 21
82.99294004327372
 31
0.0
  0
LINE
  5
E6
330
1F
100
AcDbEntity
  8
0
  6
Continuous
 62
     7
100
AcDbLine
 10
-24.98270952585298
 20
94.4929400432737
 30
0.0
 11
-24.98270952585298
 21
91.9929400432748
 31
0.0
  0
LINE
  5
E7
330
1F
100
AcDbEntity
  8
0
  6
Continuous
 62
     7
100
AcDbLine
 10
-30.45611139742967
 20
91.99294004327467
 30
0.0
 11
-30.59753275366708
 21
91.99294004327466
 31
0.0
  0
LINE
  5
E8
330
1F
100
AcDbEntity
  8
0
  6
Continuous
 62
     7
100
AcDbLine
 10
-30.88270952585301
 20
91.99294004327466
 30
0.0
 11
-30.88270952585301
 21
94.49294004327356
 31
0.0
  0
LINE
  5
E9
330
1F
100
AcDbEntity
  8
0
  6
Continuous
 62
     7
100
AcDbLine
 10
-30.59753275366708
 20
91.99294004327466
 30
0.0
 11
-30.88270952585301
 21
91.99294004327466
 31
0.0
  0
LINE
  5
EA
330
1F
100
AcDbEntity
  8
0
  6
Continuous
 62
     7
100
AcDbLine
 10
-33.88270952585301
 20
91.99294004327459
 30
0.0
 11
-33.88270952585301
 21
94.49294004327349
 31
0.0
  0
LINE
  5
EB
330
1F
100
AcDbEntity
  8
0
  6
Continuous
 62
     7
100
AcDbLine
 10
-33.88270952585301
 20
91.99294004327459
 30
0.0
 11
-33.10169580970128
 21
91.99294004327352
 31
0.0
  0
LINE
  5
EC
330
1F
100
AcDbEntity
  8
0
  6
Continuous
 62
     7
100
AcDbLine
 10
-32.74814241910811
 20
91.99294004327461
 30
0.0
 11
-32.71885309722668
 21
91.99294004327461
 31
0.0
  0
LINE
  5
ED
330
1F
100
AcDbEntity
  8
0
  6
Continuous
 62
     7
100
AcDbLine
 10
-33.07240648782001
 20
91.99294004327352
 30
0.0
 11
-32.74814241910811
 21
91.99294004327461
 31
0.0
  0
LINE
  5
EE
330
1F
100
AcDbEntity
  8
0
  6
Continuous
 62
     7
100
AcDbLine
 10
-33.10169580970128
 20
91.99294004327352
 30
0.0
 11
-33.07240648782001
 21
91.99294004327352
 31
0.0
  0
LINE
  5
EF
330
1F
100
AcDbEntity
  8
0
  6
Continuous
 62
     7
100
AcDbLine
 10
-30.95108614426041
 20
91.99294004327466
 30
0.0
 11
-30.88270952585301
 21
91.99294004327466
 31
0.0
  0
LINE
  5
F0
330
1F
100
AcDbEntity
  8
0
  6
Continuous
 62
     7
100
AcDbLine
 10
-32.68270952585296
 20
91.99294004327352
 30
0.0
 11
-30.95108614426041
 21
91.99294004327466
 31
0.0
  0
LINE
  5
F1
330
1F
100
AcDbEntity
  8
0
  6
Continuous
 62
     7
100
AcDbLine
 10
-32.71885309722668
 20
91.99294004327461
 30
0.0
 11
-32.68270952585296
 21
91.99294004327352
 31
0.0
  0
LINE
  5
F2
330
1F
100
AcDbEntity
  8
0
  6
Continuous
 62
     7
100
AcDbLine
 10
-33.88270952585301
 20
94.49294004327349
 30
0.0
 11
-30.88270952585301
 21
94.49294004327356
 31
0.0
  0
LINE
  5
F3
330
1F
100
AcDbEntity
  8
0
  6
Continuous
 62
     7
100
AcDbLine
 10
-21.7827095258531
 20
94.49294004327378
 30
0.0
 11
-15.88270952585301
 21
94.49294004327392
 31
0.0
  0
LINE
  5
F4
330
1F
100
AcDbEntity
  8
0
  6
Continuous
 62
     7
100
AcDbLine
 10
-17.59188041566161
 20
91.99294004327498
 30
0.0
 11
-18.44476283579999
 21
91.99294004327497
 31
0.0
  0
LINE
  5
F5
330
1F
100
AcDbEntity
  8
0
  6
Continuous
 62
     7
100
AcDbLine
 10
-18.44476283579999
 20
91.99294004327497
 30
0.0
 11
-18.87277613474819
 21
91.99294004327494
 31
0.0
  0
LINE
  5
F6
330
1F
100
AcDbEntity
  8
0
  6
Continuous
 62
     7
100
AcDbLine
 10
-18.87277613474819
 20
91.99294004327494
 30
0.0
 11
-18.88270952585301
 21
91.99294004327386
 31
0.0
  0
LINE
  5
F7
330
1F
100
AcDbEntity
  8
0
  6
Continuous
 62
     7
100
AcDbLine
 10
-21.78270952585299
 20
91.99294004327487
 30
0.0
 11
-21.7827095258531
 21
94.49294004327378
 31
0.0
  0
LINE
  5
F8
330
1F
100
AcDbEntity
  8
0
  6
Continuous
 62
     7
100
AcDbLine
 10
-21.88270952585301
 20
91.99294004327378
 30
0.0
 11
-21.78270952585299
 21
91.99294004327487
 31
0.0
  0
LINE
  5
F9
330
1F
100
AcDbEntity
  8
0
  6
Continuous
 62
     7
100
AcDbLine
 10
-17.68270952585291
 20
89.69294004327391
 30
0.0
 11
-17.59188041566161
 21
89.69294004327391
 31
0.0
  0
LINE
  5
FA
330
1F
100
AcDbEntity
  8
0
  6
Continuous
 62
     7
100
AcDbLine
 10
-17.59188041566161
 20
89.69294004327391
 30
0.0
 11
-17.36181869158147
 21
89.69294004327394
 31
0.0
  0
LINE
  5
FB
330
1F
100
AcDbEntity
  8
0
  6
Continuous
 62
     7
100
AcDbLine
 10
-18.8827095258529
 20
89.69294004327388
 30
0.0
 11
-18.87277613474807
 21
89.69294004327388
 31
0.0
  0
LINE
  5
FC
330
1F
100
AcDbEntity
  8
0
  6
Continuous
 62
     7
100
AcDbLine
 10
-18.87277613474807
 20
89.69294004327388
 30
0.0
 11
-17.68270952585291
 21
89.69294004327391
 31
0.0
  0
LINE
  5
FD
330
1F
100
AcDbEntity
  8
0
  6
Continuous
 62
     7
100
AcDbLine
 10
-21.78270952585282
 20
82.99294004327378
 30
0.0
 11
-21.78270952585299
 21
91.99294004327487
 31
0.0
  0
LINE
  5
FE
330
1F
100
AcDbEntity
  8
0
  6
Continuous
 62
     7
100
AcDbLine
 10
-17.59188041566161
 20
91.99294004327498
 30
0.0
 11
-17.59188041566161
 21
89.69294004327391
 31
0.0
  0
LINE
  5
FF
330
1F
100
AcDbEntity
  8
0
  6
Continuous
 62
     7
100
AcDbLine
 10
-17.36181869158147
 20
89.69294004327394
 30
0.0
 11
-15.8827095258529
 21
89.69294004327394
 31
0.0
  0
LINE
  5
100
330
1F
100
AcDbEntity
  8
0
  6
Continuous
 62
     7
100
AcDbLine
 10
-21.78270952585282
 20
82.99294004327378
 30
0.0
 11
-24.98270952585281
 21
82.99294004327372
 31
0.0
  0
LINE
  5
101
330
1F
100
AcDbEntity
  8
0
  6
Continuous
 62
     7
100
AcDbLine
 10
-24.88270952585301
 20
91.99294004327372
 30
0.0
 11
-24.28270952585299
 21
91.99294004327483
 31
0.0
  0
LINE
  5
102
330
1F
100
AcDbEntity
  8
0
  6
Continuous
 62
     7
100
AcDbLine
 10
-24.98270952585298
 20
91.9929400432748
 30
0.0
 11
-24.88270952585301
 21
91.99294004327372
 31
0.0
  0
LINE
  5
103
330
1F
100
AcDbEntity
  8
0
  6
Continuous
 62
     7
100
AcDbLine
 10
-24.28270952585299
 20
91.99294004327483
 30
0.0
 11
-22.48270952585298
 21
91.99294004327486
 31
0.0
  0
LINE
  5
104
330
1F
100
AcDbEntity
  8
0
  6
Continuous
 62
     7
100
AcDbLine
 10
-21.7827095258531
 20
94.49294004327378
 30
0.0
 11
-24.98270952585298
 21
94.4929400432737
 31
0.0
  0
LINE
  5
105
330
1F
100
AcDbEntity
  8
0
  6
Continuous
 62
     7
100
AcDbLine
 10
-22.48270952585298
 20
91.99294004327486
 30
0.0
 11
-21.88270952585301
 21
91.99294004327378
 31
0.0
  0
LINE
  5
106
330
1F
100
AcDbEntity
  8
0
  6
Continuous
 62
     7
100
AcDbLine
 10
-30.88270952585301
 20
94.49294004327356
 30
0.0
 11
-24.98270952585298
 21
94.4929400432737
 31
0.0
  0
LINE
  5
107
330
1F
100
AcDbEntity
  8
0
  6
Continuous
 62
     7
100
AcDbLine
 10
-30.38540071931109
 20
91.99294004327466
 30
0.0
 11
-30.45611139742967
 21
91.99294004327467
 31
0.0
  0
LINE
  5
108
330
1F
100
AcDbEntity
  8
0
  6
Continuous
 62
     7
100
AcDbLine
 10
-29.91451147431896
 20
91.99294004327469
 30
0.0
 11
-30.2439793630738
 21
91.99294004327358
 31
0.0
  0
LINE
  5
109
330
1F
100
AcDbEntity
  8
0
  6
Continuous
 62
     7
100
AcDbLine
 10
-30.2439793630738
 20
91.99294004327358
 30
0.0
 11
-30.38540071931109
 21
91.99294004327466
 31
0.0
  0
LINE
  5
10A
330
1F
100
AcDbEntity
  8
0
  6
Continuous
 62
     7
100
AcDbLine
 10
-28.26408037575148
 20
91.99294004327471
 30
0.0
 11
-28.6883444444634
 21
91.99294004327471
 31
0.0
  0
LINE
  5
10B
330
1F
100
AcDbEntity
  8
0
  6
Continuous
 62
     7
100
AcDbLine
 10
-28.0542824011068
 20
91.99294004327363
 30
0.0
 11
-28.26408037575148
 21
91.99294004327471
 31
0.0
  0
LINE
  5
10C
330
1F
100
AcDbEntity
  8
0
  6
Continuous
 62
     7
100
AcDbLine
 10
-27.88270952585301
 20
91.99294004327365
 30
0.0
 11
-28.0542824011068
 21
91.99294004327363
 31
0.0
  0
LINE
  5
10D
330
1F
100
AcDbEntity
  8
0
  6
Continuous
 62
     7
100
AcDbLine
 10
-28.6883444444634
 20
91.99294004327471
 30
0.0
 11
-29.91451147431896
 21
91.99294004327469
 31
0.0
  0
LINE
  5
10E
330
1F
100
AcDbEntity
  8
0
  6
Continuous
 62
     7
100
AcDbLine
 10
-12.8827095258529
 20
89.69294004327402
 30
0.0
 11
-15.8827095258529
 21
89.69294004327394
 31
0.0
  0
LINE
  5
10F
330
1F
100
AcDbEntity
  8
0
  6
Continuous
 62
     7
100
AcDbLine
 10
-12.88270952585301
 20
91.9929400432751
 30
0.0
 11
-12.8827095258529
 21
89.69294004327402
 31
0.0
  0
LINE
  5
110
330
1F
100
AcDbEntity
  8
0
  6
Continuous
 62
     7
100
AcDbLine
 10
-12.88270952585301
 20
94.492940043274
 30
0.0
 11
-12.88270952585301
 21
91.9929400432751
 31
0.0
  0
LINE
  5
111
330
1F
100
AcDbEntity
  8
0
  6
Continuous
 62
     7
100
AcDbLine
 10
-12.88270952585301
 20
94.492940043274
 30
0.0
 11
-15.88270952585301
 21
94.49294004327392
 31
0.0
  0
LINE
  5
112
330
1F
100
AcDbEntity
  8
0
  6
Continuous
 62
     7
100
AcDbLine
 10
-15.88270952585301
 20
94.49294004327392
 30
0.0
 11
-15.8827095258529
 21
89.69294004327394
 31
0.0
  0
LINE
  5
113
330
1F
100
AcDbEntity
  8
0
  6
Continuous
 62
     7
100
AcDbLine
 10
-33.13270952585221
 20
62.99294004327349
 30
0.0
 11
-33.13270952585227
 21
66.84294004327349
 31
0.0
  0
LINE
  5
114
330
1F
100
AcDbEntity
  8
0
  6
Continuous
 62
     7
100
AcDbLine
 10
-24.88270952585221
 20
62.99294004327372
 30
0.0
 11
-27.88270952585221
 21
62.99294004327363
 31
0.0
  0
LINE
  5
115
330
1F
100
AcDbEntity
  8
0
  6
Continuous
 62
     7
100
AcDbLine
 10
-21.88270952585227
 20
66.84294004327377
 30
0.0
 11
-21.88270952585221
 21
62.99294004327378
 31
0.0
  0
LINE
  5
116
330
1F
100
AcDbEntity
  8
0
  6
Continuous
 62
     7
100
AcDbLine
 10
-24.88270952585221
 20
62.99294004327372
 30
0.0
 11
-24.88270952585227
 21
66.84294004327369
 31
0.0
  0
LINE
  5
117
330
1F
100
AcDbEntity
  8
0
  6
Continuous
 62
     7
100
AcDbLine
 10
-24.88270952585221
 20
62.99294004327372
 30
0.0
 11
-21.88270952585221
 21
62.99294004327378
 31
0.0
  0
LINE
  5
118
330
1F
100
AcDbEntity
  8
0
  6
Continuous
 62
     7
100
AcDbLine
 10
-30.88270952585221
 20
62.99294004327355
 30
0.0
 11
-30.88270952585227
 21
66.84294004327354
 31
0.0
  0
LINE
  5
119
330
1F
100
AcDbEntity
  8
0
  6
Continuous
 62
     7
100
AcDbLine
 10
-33.88270952585221
 20
62.99294004327349
 30
0.0
 11
-33.88270952585227
 21
66.84294004327346
 31
0.0
  0
LINE
  5
11A
330
1F
100
AcDbEntity
  8
0
  6
Continuous
 62
     7
100
AcDbLine
 10
-33.13270952585221
 20
62.99294004327349
 30
0.0
 11
-30.88270952585221
 21
62.99294004327355
 31
0.0
  0
LINE
  5
11B
330
1F
100
AcDbEntity
  8
0
  6
Continuous
 62
     7
100
AcDbLine
 10
-33.13270952585221
 20
62.99294004327349
 30
0.0
 11
-33.88270952585221
 21
62.99294004327349
 31
0.0
  0
LINE
  5
11C
330
1F
100
AcDbEntity
  8
0
  6
Continuous
 62
     7
100
AcDbLine
 10
-27.88270952585221
 20
62.99294004327363
 30
0.0
 11
-30.88270952585221
 21
62.99294004327355
 31
0.0
  0
LINE
  5
11D
330
1F
100
AcDbEntity
  8
0
  6
Continuous
 62
     7
100
AcDbLine
 10
-27.88270952585221
 20
62.99294004327363
 30
0.0
 11
-27.88270952585227
 21
66.84294004327363
 31
0.0
  0
LINE
  5
11E
330
1F
100
AcDbEntity
  8
0
  6
Continuous
 62
     7
100
AcDbLine
 10
-30.88270952585238
 20
69.14294004327355
 30
0.0
 11
-30.88270952585301
 21
91.99294004327466
 31
0.0
  0
LINE
  5
11F
330
1F
100
AcDbEntity
  8
0
  6
Continuous
 62
     7
100
AcDbLine
 10
-33.88270952585301
 20
91.99294004327459
 30
0.0
 11
-33.10169580970128
 21
91.99294004327352
 31
0.0
  0
LINE
  5
120
330
1F
100
AcDbEntity
  8
0
  6
Continuous
 62
     7
100
AcDbLine
 10
-32.74814241910811
 20
91.99294004327461
 30
0.0
 11
-32.71885309722668
 21
91.99294004327461
 31
0.0
  0
LINE
  5
121
330
1F
100
AcDbEntity
  8
0
  6
Continuous
 62
     7
100
AcDbLine
 10
-33.07240648782001
 20
91.99294004327352
 30
0.0
 11
-32.74814241910811
 21
91.99294004327461
 31
0.0
  0
LINE
  5
122
330
1F
100
AcDbEntity
  8
0
  6
Continuous
 62
     7
100
AcDbLine
 10
-33.10169580970128
 20
91.99294004327352
 30
0.0
 11
-33.07240648782001
 21
91.99294004327352
 31
0.0
  0
LINE
  5
123
330
1F
100
AcDbEntity
  8
0
  6
Continuous
 62
     7
100
AcDbLine
 10
-32.68270952585296
 20
91.99294004327352
 30
0.0
 11
-30.88270952585301
 21
91.99294004327466
 31
0.0
  0
LINE
  5
124
330
1F
100
AcDbEntity
  8
0
  6
Continuous
 62
     7
100
AcDbLine
 10
-32.71885309722668
 20
91.99294004327461
 30
0.0
 11
-32.68270952585296
 21
91.99294004327352
 31
0.0
  0
LINE
  5
125
330
1F
100
AcDbEntity
  8
0
  6
Continuous
 62
     7
100
AcDbLine
 10
-33.88270952585301
 20
91.99294004327459
 30
0.0
 11
-33.88270952585238
 21
69.14294004327347
 31
0.0
  0
LINE
  5
126
330
1F
100
AcDbEntity
  8
0
  6
Continuous
 62
     7
100
AcDbLine
 10
-17.59188041566161
 20
91.99294004327498
 30
0.0
 11
-18.87277613474819
 21
91.99294004327494
 31
0.0
  0
LINE
  5
127
330
1F
100
AcDbEntity
  8
0
  6
Continuous
 62
     7
100
AcDbLine
 10
-18.87277613474819
 20
91.99294004327494
 30
0.0
 11
-18.88270952585301
 21
91.99294004327386
 31
0.0
  0
LINE
  5
128
330
1F
100
AcDbEntity
  8
0
  6
Continuous
 62
     7
100
AcDbLine
 10
-21.88270952585301
 20
91.99294004327378
 30
0.0
 11
-21.78270952585299
 21
91.99294004327487
 31
0.0
  0
LINE
  5
129
330
1F
100
AcDbEntity
  8
0
  6
Continuous
 62
     7
100
AcDbLine
 10
-17.68270952585291
 20
89.69294004327391
 30
0.0
 11
-17.18270952585291
 21
89.69294004327394
 31
0.0
  0
LINE
  5
12A
330
1F
100
AcDbEntity
  8
0
  6
Continuous
 62
     7
100
AcDbLine
 10
-18.8827095258529
 20
89.69294004327388
 30
0.0
 11
-17.68270952585291
 21
89.69294004327391
 31
0.0
  0
LINE
  5
12B
330
1F
100
AcDbEntity
  8
0
  6
Continuous
 62
     7
100
AcDbLine
 10
-16.90095043907879
 20
89.69294004327394
 30
0.0
 11
-16.8827095258529
 21
89.69294004327394
 31
0.0
  0
LINE
  5
12C
330
1F
100
AcDbEntity
  8
0
  6
Continuous
 62
     7
100
AcDbLine
 10
-17.18270952585291
 20
89.69294004327394
 30
0.0
 11
-16.90095043907879
 21
89.69294004327394
 31
0.0
  0
LINE
  5
12D
330
1F
100
AcDbEntity
  8
0
  6
Continuous
 62
     7
100
AcDbLine
 10
-18.88270952585267
 20
79.69294004327385
 30
0.0
 11
-21.88270952585267
 21
79.69294004327377
 31
0.0
  0
LINE
  5
12E
330
1F
100
AcDbEntity
  8
0
  6
Continuous
 62
     7
100
AcDbLine
 10
-18.8827095258529
 20
89.69294004327388
 30
0.0
 11
-18.88270952585301
 21
91.99294004327386
 31
0.0
  0
LINE
  5
12F
330
1F
100
AcDbEntity
  8
0
  6
Continuous
 62
     7
100
AcDbLine
 10
-16.8827095258529
 20
89.69294004327394
 30
0.0
 11
-15.91241015765151
 21
89.69294004327394
 31
0.0
  0
LINE
  5
130
330
1F
100
AcDbEntity
  8
0
  6
Continuous
 62
     7
100
AcDbLine
 10
-15.91241015765151
 20
89.69294004327394
 30
0.0
 11
-15.8827095258529
 21
89.69294004327394
 31
0.0
  0
LINE
  5
131
330
1F
100
AcDbEntity
  8
0
  6
Continuous
 62
     7
100
AcDbLine
 10
-15.88270952585301
 20
91.99294004327393
 30
0.0
 11
-15.8827095258529
 21
89.69294004327394
 31
0.0
  0
LINE
  5
132
330
1F
100
AcDbEntity
  8
0
  6
Continuous
 62
     7
100
AcDbLine
 10
-24.88270952585301
 20
91.99294004327372
 30
0.0
 11
-24.28270952585299
 21
91.99294004327483
 31
0.0
  0
LINE
  5
133
330
1F
100
AcDbEntity
  8
0
  6
Continuous
 62
     7
100
AcDbLine
 10
-24.98270952585298
 20
91.9929400432748
 30
0.0
 11
-24.88270952585301
 21
91.99294004327372
 31
0.0
  0
LINE
  5
134
330
1F
100
AcDbEntity
  8
0
  6
Continuous
 62
     7
100
AcDbLine
 10
-24.28270952585299
 20
91.99294004327483
 30
0.0
 11
-22.48270952585298
 21
91.99294004327486
 31
0.0
  0
LINE
  5
135
330
1F
100
AcDbEntity
  8
0
  6
Continuous
 62
     7
100
AcDbLine
 10
-22.48270952585298
 20
91.99294004327486
 30
0.0
 11
-21.88270952585301
 21
91.99294004327378
 31
0.0
  0
LINE
  5
136
330
1F
100
AcDbEntity
  8
0
  6
Continuous
 62
     7
100
AcDbLine
 10
-30.38540071931109
 20
91.99294004327466
 30
0.0
 11
-30.88270952585301
 21
91.99294004327466
 31
0.0
  0
LINE
  5
137
330
1F
100
AcDbEntity
  8
0
  6
Continuous
 62
     7
100
AcDbLine
 10
-29.91451147431896
 20
91.99294004327469
 30
0.0
 11
-30.2439793630738
 21
91.99294004327358
 31
0.0
  0
LINE
  5
138
330
1F
100
AcDbEntity
  8
0
  6
Continuous
 62
     7
100
AcDbLine
 10
-30.2439793630738
 20
91.99294004327358
 30
0.0
 11
-30.38540071931109
 21
91.99294004327466
 31
0.0
  0
LINE
  5
139
330
1F
100
AcDbEntity
  8
0
  6
Continuous
 62
     7
100
AcDbLine
 10
-27.88270952585267
 20
79.69294004327362
 30
0.0
 11
-24.88270952585267
 21
79.69294004327371
 31
0.0
  0
LINE
  5
13A
330
1F
100
AcDbEntity
  8
0
  6
Continuous
 62
     7
100
AcDbLine
 10
-28.0542824011068
 20
91.99294004327363
 30
0.0
 11
-28.26408037575148
 21
91.99294004327471
 31
0.0
  0
LINE
  5
13B
330
1F
100
AcDbEntity
  8
0
  6
Continuous
 62
     7
100
AcDbLine
 10
-27.88270952585301
 20
91.99294004327365
 30
0.0
 11
-28.0542824011068
 21
91.99294004327363
 31
0.0
  0
LINE
  5
13C
330
1F
100
AcDbEntity
  8
0
  6
Continuous
 62
     7
100
AcDbLine
 10
-28.26408037575148
 20
91.99294004327471
 30
0.0
 11
-29.91451147431896
 21
91.99294004327469
 31
0.0
  0
LINE
  5
13D
330
1F
100
AcDbEntity
  8
0
  6
Continuous
 62
     7
100
AcDbLine
 10
-12.88270952585238
 20
69.14294004327398
 30
0.0
 11
-12.88270952585261
 21
77.89294004327398
 31
0.0
  0
LINE
  5
13E
330
1F
100
AcDbEntity
  8
0
  6
Continuous
 62
     7
100
AcDbLine
 10
-21.88270952585238
 20
69.14294004327375
 30
0.0
 11
-21.88270952585267
 21
79.69294004327377
 31
0.0
  0
LINE
  5
13F
330
1F
100
AcDbEntity
  8
0
  6
Continuous
 62
     7
100
AcDbLine
 10
-24.88270952585267
 20
79.69294004327371
 30
0.0
 11
-24.88270952585238
 21
69.1429400432737
 31
0.0
  0
LINE
  5
140
330
1F
100
AcDbEntity
  8
0
  6
Continuous
 62
     7
100
AcDbLine
 10
-27.88270952585301
 20
91.99294004327365
 30
0.0
 11
-27.88270952585238
 21
69.14294004327364
 31
0.0
  0
LINE
  5
141
330
1F
100
AcDbEntity
  8
0
  6
Continuous
 62
     7
100
AcDbLine
 10
-18.88270952585221
 20
62.99294004327383
 30
0.0
 11
-21.88270952585221
 21
62.99294004327378
 31
0.0
  0
LINE
  5
142
330
1F
100
AcDbEntity
  8
0
  6
Continuous
 62
     7
100
AcDbLine
 10
-12.8827095258529
 20
89.69294004327402
 30
0.0
 11
-14.03903765865677
 21
89.69294004327399
 31
0.0
  0
LINE
  5
143
330
1F
100
AcDbEntity
  8
0
  6
Continuous
 62
     7
100
AcDbLine
 10
-14.06472317610896
 20
89.69294004327399
 30
0.0
 11
-15.8827095258529
 21
89.69294004327394
 31
0.0
  0
LINE
  5
144
330
1F
100
AcDbEntity
  8
0
  6
Continuous
 62
     7
100
AcDbLine
 10
-14.03903765865677
 20
89.69294004327399
 30
0.0
 11
-14.06472317610896
 21
89.69294004327399
 31
0.0
  0
LINE
  5
145
330
1F
100
AcDbEntity
  8
0
  6
Continuous
 62
     7
100
AcDbLine
 10
-12.88270952585301
 20
91.9929400432751
 30
0.0
 11
-12.8827095258529
 21
89.69294004327402
 31
0.0
  0
LINE
  5
146
330
1F
100
AcDbEntity
  8
0
  6
Continuous
 62
     7
100
AcDbLine
 10
-15.88270952585238
 20
69.14294004327392
 30
0.0
 11
-15.8827095258529
 21
89.69294004327394
 31
0.0
  0
LINE
  5
147
330
1F
100
AcDbEntity
  8
0
  6
Continuous
 62
     7
100
AcDbLine
 10
-18.88270952585238
 20
69.14294004327384
 30
0.0
 11
-18.8827095258529
 21
89.69294004327388
 31
0.0
  0
LINE
  5
148
330
1F
100
AcDbEntity
  8
0
  6
Continuous
 62
     7
100
AcDbLine
 10
-18.88270952585227
 20
66.84294004327386
 30
0.0
 11
-18.88270952585221
 21
62.99294004327383
 31
0.0
  0
LINE
  5
149
330
1F
100
AcDbEntity
  8
0
  6
Continuous
 62
     7
100
AcDbLine
 10
-12.88270952585221
 20
62.99294004327398
 30
0.0
 11
-12.88270952585227
 21
66.84294004327397
 31
0.0
  0
LINE
  5
14A
330
1F
100
AcDbEntity
  8
0
  6
Continuous
 62
     7
100
AcDbLine
 10
-15.88270952585221
 20
62.99294004327392
 30
0.0
 11
-18.88270952585221
 21
62.99294004327383
 31
0.0
  0
LINE
  5
14B
330
1F
100
AcDbEntity
  8
0
  6
Continuous
 62
     7
100
AcDbLine
 10
-15.88270952585221
 20
62.99294004327392
 30
0.0
 11
-13.63270952585221
 21
62.99294004327398
 31
0.0
  0
LINE
  5
14C
330
1F
100
AcDbEntity
  8
0
  6
Continuous
 62
     7
100
AcDbLine
 10
-12.88270952585221
 20
62.99294004327398
 30
0.0
 11
-13.63270952585221
 21
62.99294004327398
 31
0.0
  0
LINE
  5
14D
330
1F
100
AcDbEntity
  8
0
  6
Continuous
 62
     7
100
AcDbLine
 10
-13.63270952585221
 20
62.99294004327398
 30
0.0
 11
-13.63270952585227
 21
66.84294004327397
 31
0.0
  0
LINE
  5
14E
330
1F
100
AcDbEntity
  8
0
  6
Continuous
 62
     7
100
AcDbLine
 10
-15.88270952585221
 20
62.99294004327392
 30
0.0
 11
-15.88270952585227
 21
66.84294004327391
 31
0.0
  0
LINE
  5
14F
330
1F
100
AcDbEntity
  8
0
  6
Continuous
 62
     7
100
AcDbLine
 10
-12.88270952585261
 20
77.89294004327398
 30
0.0
 11
-12.8827095258529
 21
89.69294004327402
 31
0.0
  0
LINE
  5
150
330
1F
100
AcDbEntity
  8
0
  6
Continuous
 62
     7
100
AcDbLine
 10
-60.76199884773412
 20
76.99294004327398
 30
0.0
 11
-61.0327095258527
 21
76.99294004327398
 31
0.0
  0
LINE
  5
151
330
1F
100
AcDbEntity
  8
0
  6
Continuous
 62
     7
100
AcDbLine
 10
-61.0327095258527
 20
76.99294004327398
 30
0.0
 11
-66.3327095258526
 21
76.99294004327398
 31
0.0
  0
LINE
  5
152
330
1F
100
AcDbEntity
  8
0
  6
Continuous
 62
     7
100
AcDbLine
 10
-67.24170708467018
 20
83.49294004327446
 30
0.0
 11
-66.87285614155788
 21
83.49294004327398
 31
0.0
  0
LINE
  5
153
330
1F
100
AcDbEntity
  8
0
  6
Continuous
 62
     7
100
AcDbLine
 10
-60.79128816961539
 20
83.49294004327398
 30
0.0
 11
-66.87285614155788
 21
83.49294004327398
 31
0.0
  0
LINE
  5
154
330
1F
100
AcDbEntity
  8
0
  6
Continuous
 62
     7
100
AcDbLine
 10
-63.43166876184422
 20
81.15966623223183
 30
0.0
 11
-62.35596044410069
 21
82.23537454997516
 31
0.0
  0
LINE
  5
155
330
1F
100
AcDbEntity
  8
0
  6
Continuous
 62
     7
100
AcDbLine
 10
-62.51242994630162
 20
79.0383458886722
 30
0.0
 11
-63.07811537125089
 21
78.47266046372296
 31
0.0
  0
LINE
  5
156
330
1F
100
AcDbEntity
  8
0
  6
Continuous
 62
     7
100
AcDbLine
 10
-62.8659833368949
 20
79.39189927926547
 30
0.0
 11
-62.51242994630162
 21
79.0383458886722
 31
0.0
  0
LINE
  5
157
330
1F
100
AcDbEntity
  8
0
  6
Continuous
 62
     7
100
AcDbLine
 10
-63.43166876184422
 20
78.82621385431621
 30
0.0
 11
-64.0327095258527
 21
79.18880504327403
 31
0.0
  0
LINE
  5
158
330
1F
100
AcDbEntity
  8
0
  6
Continuous
 62
     7
100
AcDbLine
 10
-63.07811537125089
 20
78.47266046372296
 30
0.0
 11
-63.43166876184422
 21
78.82621385431621
 31
0.0
  0
LINE
  5
159
330
1F
100
AcDbEntity
  8
0
  6
Continuous
 62
     7
100
AcDbLine
 10
-64.0327095258527
 20
79.18880504327403
 30
0.0
 11
-64.63375028986123
 21
78.82621385431626
 31
0.0
  0
LINE
  5
15A
330
1F
100
AcDbEntity
  8
0
  6
Continuous
 62
     7
100
AcDbLine
 10
-62.8659833368949
 20
80.59398080728259
 30
0.0
 11
-63.43166876184422
 21
81.15966623223183
 31
0.0
  0
LINE
  5
15B
330
1F
100
AcDbEntity
  8
0
  6
Continuous
 62
     7
100
AcDbLine
 10
-63.22857452585272
 20
79.99294004327403
 30
0.0
 11
-62.8659833368949
 21
79.39189927926547
 31
0.0
  0
LINE
  5
15C
330
1F
100
AcDbEntity
  8
0
  6
Continuous
 62
     7
100
AcDbLine
 10
-62.8659833368949
 20
80.59398080728259
 30
0.0
 11
-63.22857452585272
 21
79.99294004327403
 31
0.0
  0
LINE
  5
15D
330
1F
100
AcDbEntity
  8
0
  6
Continuous
 62
     7
100
AcDbLine
 10
-64.0327095258527
 20
80.79707504327403
 30
0.0
 11
-63.43166876184422
 21
81.15966623223183
 31
0.0
  0
LINE
  5
15E
330
1F
100
AcDbEntity
  8
0
  6
Continuous
 62
     7
100
AcDbLine
 10
-64.63375028986128
 20
81.15966623223183
 30
0.0
 11
-64.0327095258527
 21
80.79707504327403
 31
0.0
  0
LINE
  5
15F
330
1F
100
AcDbEntity
  8
0
  6
Continuous
 62
     7
100
AcDbLine
 10
-61.79027501915148
 20
81.66968912502593
 30
0.0
 11
-62.8659833368949
 21
80.59398080728259
 31
0.0
  0
LINE
  5
160
330
1F
100
AcDbEntity
  8
0
  6
Continuous
 62
     7
100
AcDbLine
 10
-65.19943571481049
 20
79.39189927926544
 30
0.0
 11
-64.63375028986123
 21
78.82621385431626
 31
0.0
  0
LINE
  5
161
330
1F
100
AcDbEntity
  8
0
  6
Continuous
 62
     7
100
AcDbLine
 10
-64.98730368045462
 20
81.5132196228251
 30
0.0
 11
-64.63375028986128
 21
81.15966623223183
 31
0.0
  0
LINE
  5
162
330
1F
100
AcDbEntity
  8
0
  6
Continuous
 62
     7
100
AcDbLine
 10
-66.2751440325538
 20
78.31619096152208
 30
0.0
 11
-65.19943571481049
 21
79.39189927926544
 31
0.0
  0
LINE
  5
163
330
1F
100
AcDbEntity
  8
0
  6
Continuous
 62
     7
100
AcDbLine
 10
-65.19943571481049
 20
80.59398080728259
 30
0.0
 11
-65.55298910540382
 21
80.94753419787587
 31
0.0
  0
LINE
  5
164
330
1F
100
AcDbEntity
  8
0
  6
Continuous
 62
     7
100
AcDbLine
 10
-65.55298910540382
 20
80.94753419787587
 30
0.0
 11
-64.98730368045462
 21
81.5132196228251
 31
0.0
  0
LINE
  5
165
330
1F
100
AcDbEntity
  8
0
  6
Continuous
 62
     7
100
AcDbLine
 10
-64.83684452585273
 20
79.99294004327403
 30
0.0
 11
-65.19943571481049
 21
80.59398080728259
 31
0.0
  0
LINE
  5
166
330
1F
100
AcDbEntity
  8
0
  6
Continuous
 62
     7
100
AcDbLine
 10
-65.19943571481049
 20
79.39189927926544
 30
0.0
 11
-64.83684452585273
 21
79.99294004327403
 31
0.0
  0
LINE
  5
167
330
1F
100
AcDbEntity
  8
0
  6
Continuous
 62
     7
100
AcDbLine
 10
-64.63375028986123
 20
78.82621385431626
 30
0.0
 11
-65.70945860760459
 21
77.75050553657285
 31
0.0
  0
LINE
  5
168
330
1F
100
AcDbEntity
  8
0
  6
Continuous
 62
     7
100
AcDbLine
 10
-67.82768225539299
 20
89.69294004327394
 30
0.0
 11
-67.5705774914967
 21
89.69294004327374
 31
0.0
  0
LINE
  5
169
330
1F
100
AcDbEntity
  8
0
  6
Continuous
 62
     7
100
AcDbLine
 10
-68.48094089719349
 20
89.6929400432736
 30
0.0
 11
-67.82768225539299
 21
89.69294004327394
 31
0.0
  0
LINE
  5
16A
330
1F
100
AcDbEntity
  8
0
  6
Continuous
 62
     7
100
AcDbLine
 10
-68.77900401347911
 20
89.69294004327382
 30
0.0
 11
-68.58460870315032
 21
89.69294004327377
 31
0.0
  0
LINE
  5
16B
330
1F
100
AcDbEntity
  8
0
  6
Continuous
 62
     7
100
AcDbLine
 10
-68.83270952585282
 20
89.69294004327402
 30
0.0
 11
-68.77900401347911
 21
89.69294004327382
 31
0.0
  0
LINE
  5
16C
330
1F
100
AcDbEntity
  8
0
  6
Continuous
 62
     7
100
AcDbLine
 10
-68.58460870315032
 20
89.69294004327377
 30
0.0
 11
-68.48094089719349
 21
89.6929400432736
 31
0.0
  0
LINE
  5
16D
330
1F
100
AcDbEntity
  8
0
  6
Continuous
 62
     7
100
AcDbLine
 10
-67.4461113588559
 20
89.69294004327399
 30
0.0
 11
-67.2990076181671
 21
89.69294004327394
 31
0.0
  0
LINE
  5
16E
330
1F
100
AcDbEntity
  8
0
  6
Continuous
 62
     7
100
AcDbLine
 10
-67.2990076181671
 20
89.69294004327394
 30
0.0
 11
-67.28773477902207
 21
89.69294004327399
 31
0.0
  0
LINE
  5
16F
330
1F
100
AcDbEntity
  8
0
  6
Continuous
 62
     7
100
AcDbLine
 10
-67.5705774914967
 20
89.69294004327374
 30
0.0
 11
-67.4461113588559
 21
89.69294004327399
 31
0.0
  0
LINE
  5
170
330
1F
100
AcDbEntity
  8
0
  6
Continuous
 62
     7
100
AcDbLine
 10
-67.1144797097814
 20
89.69294004327377
 30
0.0
 11
-67.0327095258527
 21
89.69294004327399
 31
0.0
  0
LINE
  5
171
330
1F
100
AcDbEntity
  8
0
  6
Continuous
 62
     7
100
AcDbLine
 10
-67.28773477902207
 20
89.69294004327399
 30
0.0
 11
-67.1144797097814
 21
89.69294004327377
 31
0.0
  0
LINE
  5
172
330
1F
100
AcDbEntity
  8
0
  6
Continuous
 62
     7
100
AcDbLine
 10
-60.76199884773412
 20
76.99294004327398
 30
0.0
 11
-61.0327095258527
 21
76.99294004327398
 31
0.0
  0
LINE
  5
173
330
1F
100
AcDbEntity
  8
0
  6
Continuous
 62
     7
100
AcDbLine
 10
-60.76199884773412
 20
91.78861961117002
 30
0.0
 11
-60.76199884773412
 21
76.99294004327398
 31
0.0
  0
LINE
  5
174
330
1F
100
AcDbEntity
  8
0
  6
Continuous
 62
     7
100
AcDbLine
 10
-67.4461113588559
 20
89.69294004327399
 30
0.0
 11
-67.24170708467018
 21
89.19294004327399
 31
0.0
  0
LINE
  5
175
330
1F
100
AcDbEntity
  8
0
  6
Continuous
 62
     7
100
AcDbLine
 10
-67.0327095258527
 20
76.99294004327398
 30
0.0
 11
-61.0327095258527
 21
76.99294004327398
 31
0.0
  0
LINE
  5
176
330
1F
100
AcDbEntity
  8
0
  6
Continuous
 62
     7
100
AcDbLine
 10
-67.0327095258527
 20
75.94294004327396
 30
0.0
 11
-61.0327095258527
 21
75.94294004327396
 31
0.0
  0
LINE
  5
177
330
1F
100
AcDbEntity
  8
0
  6
Continuous
 62
     7
100
AcDbLine
 10
-66.43270952585273
 20
76.99294004327395
 30
0.0
 11
-66.43270952585273
 21
77.00304209471732
 31
0.0
  0
LINE
  5
178
330
1F
100
AcDbEntity
  8
0
  6
Continuous
 62
     7
100
AcDbLine
 10
-67.24170708467018
 20
76.99294004327398
 30
0.0
 11
-67.0327095258527
 21
76.99294004327398
 31
0.0
  0
LINE
  5
179
330
1F
100
AcDbEntity
  8
0
  6
Continuous
 62
     7
100
AcDbLine
 10
-67.24170708467018
 20
89.19294004327399
 30
0.0
 11
-67.24170708467018
 21
76.99294004327398
 31
0.0
  0
LINE
  5
17A
330
1F
100
AcDbEntity
  8
0
  6
Continuous
 62
     7
100
AcDbLine
 10
-56.5327095258527
 20
91.9929400432751
 30
0.0
 11
-56.81788629803869
 21
91.99294004327461
 31
0.0
  0
LINE
  5
17B
330
1F
100
AcDbEntity
  8
0
  6
Continuous
 62
     7
100
AcDbLine
 10
-56.30154372453877
 20
91.99294004327496
 30
0.0
 11
-56.38270952585272
 21
91.99294004327486
 31
0.0
  0
LINE
  5
17C
330
1F
100
AcDbEntity
  8
0
  6
Continuous
 62
     7
100
AcDbLine
 10
-56.38270952585272
 20
91.99294004327486
 30
0.0
 11
-56.52094983502458
 21
91.99294004327496
 31
0.0
  0
LINE
  5
17D
330
1F
100
AcDbEntity
  8
0
  6
Continuous
 62
     7
100
AcDbLine
 10
-56.25220087308942
 20
91.99294004327471
 30
0.0
 11
-56.30154372453877
 21
91.99294004327496
 31
0.0
  0
LINE
  5
17E
330
1F
100
AcDbEntity
  8
0
  6
Continuous
 62
     7
100
AcDbLine
 10
-56.25220087308942
 20
91.99294004327471
 30
0.0
 11
-54.78908930503032
 21
91.992940043275
 31
0.0
  0
LINE
  5
17F
330
1F
100
AcDbEntity
  8
0
  6
Continuous
 62
     7
100
AcDbLine
 10
-54.78908930503032
 20
91.992940043275
 30
0.0
 11
-54.73270952585268
 21
91.99294004327378
 31
0.0
  0
LINE
  5
180
330
1F
100
AcDbEntity
  8
0
  6
Continuous
 62
     7
100
AcDbLine
 10
-54.73270952585268
 20
91.99294004327378
 30
0.0
 11
-54.69656595447903
 21
91.99294004327466
 31
0.0
  0
LINE
  5
181
330
1F
100
AcDbEntity
  8
0
  6
Continuous
 62
     7
100
AcDbLine
 10
-54.69656595447903
 20
91.99294004327466
 30
0.0
 11
-54.66727663259759
 21
91.99294004327467
 31
0.0
  0
LINE
  5
182
330
1F
100
AcDbEntity
  8
0
  6
Continuous
 62
     7
100
AcDbLine
 10
-57.26770952585271
 20
91.99294004327484
 30
0.0
 11
-57.43270952585273
 21
91.99294004327484
 31
0.0
  0
LINE
  5
183
330
1F
100
AcDbEntity
  8
0
  6
Continuous
 62
     7
100
AcDbLine
 10
-57.07148405723019
 20
91.99294004327496
 30
0.0
 11
-57.17143968863191
 21
91.99294004327352
 31
0.0
  0
LINE
  5
184
330
1F
100
AcDbEntity
  8
0
  6
Continuous
 62
     7
100
AcDbLine
 10
-57.17143968863191
 20
91.99294004327352
 30
0.0
 11
-57.26770952585271
 21
91.99294004327484
 31
0.0
  0
LINE
  5
185
330
1F
100
AcDbEntity
  8
0
  6
Continuous
 62
     7
100
AcDbLine
 10
-56.81788629803869
 20
91.99294004327461
 30
0.0
 11
-56.95930765427598
 21
91.99294004327461
 31
0.0
  0
LINE
  5
186
330
1F
100
AcDbEntity
  8
0
  6
Continuous
 62
     7
100
AcDbLine
 10
-56.95930765427598
 20
91.99294004327461
 30
0.0
 11
-57.03001833239462
 21
91.99294004327352
 31
0.0
  0
LINE
  5
187
330
1F
100
AcDbEntity
  8
0
  6
Continuous
 62
     7
100
AcDbLine
 10
-57.03001833239462
 20
91.99294004327352
 30
0.0
 11
-57.07148405723019
 21
91.99294004327496
 31
0.0
  0
LINE
  5
188
330
1F
100
AcDbEntity
  8
0
  6
Continuous
 62
     7
100
AcDbLine
 10
-56.5327095258527
 20
91.9929400432751
 30
0.0
 11
-56.52094983502458
 21
91.99294004327496
 31
0.0
  0
LINE
  5
189
330
1F
100
AcDbEntity
  8
0
  6
Continuous
 62
     7
100
AcDbLine
 10
-60.76199884773412
 20
91.78861961117002
 30
0.0
 11
-60.6440343912579
 21
91.99294004327396
 31
0.0
  0
LINE
  5
18A
330
1F
100
AcDbEntity
  8
0
  6
Continuous
 62
     7
100
AcDbLine
 10
-59.13702920076862
 20
91.99294004327483
 30
0.0
 11
-59.23270952585268
 21
91.9929400432751
 31
0.0
  0
LINE
  5
18B
330
1F
100
AcDbEntity
  8
0
  6
Continuous
 62
     7
100
AcDbLine
 10
-59.23270952585268
 20
91.9929400432751
 30
0.0
 11
-59.2655451620878
 21
91.992940043275
 31
0.0
  0
LINE
  5
18C
330
1F
100
AcDbEntity
  8
0
  6
Continuous
 62
     7
100
AcDbLine
 10
-59.2655451620878
 20
91.992940043275
 30
0.0
 11
-59.36113665059891
 21
91.99294004327356
 31
0.0
  0
LINE
  5
18D
330
1F
100
AcDbEntity
  8
0
  6
Continuous
 62
     7
100
AcDbLine
 10
-57.50090757738668
 20
91.99294004327476
 30
0.0
 11
-58.2827095258527
 21
91.99294004327375
 31
0.0
  0
LINE
  5
18E
330
1F
100
AcDbEntity
  8
0
  6
Continuous
 62
     7
100
AcDbLine
 10
-57.48960878788093
 20
91.99294004327491
 30
0.0
 11
-57.50090757738668
 21
91.99294004327476
 31
0.0
  0
LINE
  5
18F
330
1F
100
AcDbEntity
  8
0
  6
Continuous
 62
     7
100
AcDbLine
 10
-57.43270952585273
 20
91.99294004327484
 30
0.0
 11
-57.48960878788093
 21
91.99294004327491
 31
0.0
  0
LINE
  5
190
330
1F
100
AcDbEntity
  8
0
  6
Continuous
 62
     7
100
AcDbLine
 10
-58.2827095258527
 20
91.99294004327375
 30
0.0
 11
-58.86128168020589
 21
91.99294004327501
 31
0.0
  0
LINE
  5
191
330
1F
100
AcDbEntity
  8
0
  6
Continuous
 62
     7
100
AcDbLine
 10
-59.64403439125779
 20
91.99294004327392
 30
0.0
 11
-60.30863283338921
 21
91.99294004327498
 31
0.0
  0
LINE
  5
192
330
1F
100
AcDbEntity
  8
0
  6
Continuous
 62
     7
100
AcDbLine
 10
-58.86128168020589
 20
91.99294004327501
 30
0.0
 11
-59.0806877906917
 21
91.99294004327501
 31
0.0
  0
LINE
  5
193
330
1F
100
AcDbEntity
  8
0
  6
Continuous
 62
     7
100
AcDbLine
 10
-59.0806877906917
 20
91.99294004327501
 30
0.0
 11
-59.13702920076862
 21
91.99294004327483
 31
0.0
  0
LINE
  5
194
330
1F
100
AcDbEntity
  8
0
  6
Continuous
 62
     7
100
AcDbLine
 10
-60.83270952585271
 20
91.99294004327392
 30
0.0
 11
-61.0327095258527
 21
91.99294004327504
 31
0.0
  0
LINE
  5
195
330
1F
100
AcDbEntity
  8
0
  6
Continuous
 62
     7
100
AcDbLine
 10
-60.30863283338921
 20
91.99294004327498
 30
0.0
 11
-60.6440343912579
 21
91.99294004327396
 31
0.0
  0
LINE
  5
196
330
1F
100
AcDbEntity
  8
0
  6
Continuous
 62
     7
100
AcDbLine
 10
-60.6440343912579
 20
91.99294004327396
 30
0.0
 11
-60.83270952585271
 21
91.99294004327392
 31
0.0
  0
LINE
  5
197
330
1F
100
AcDbEntity
  8
0
  6
Continuous
 62
     7
100
AcDbLine
 10
-59.36113665059891
 20
91.99294004327356
 30
0.0
 11
-59.64403439125779
 21
91.99294004327392
 31
0.0
  0
LINE
  5
198
330
1F
100
AcDbEntity
  8
0
  6
Continuous
 62
     7
100
AcDbLine
 10
-59.23270952585268
 20
75.19294004327399
 30
0.0
 11
-61.0327095258527
 21
76.99294004327398
 31
0.0
  0
LINE
  5
199
330
1F
100
AcDbEntity
  8
0
  6
Continuous
 62
     7
100
AcDbLine
 10
-59.23270952585268
 20
75.19294004327399
 30
0.0
 11
-59.23270952585268
 21
91.9929400432751
 31
0.0
  0
LINE
  5
19A
330
1F
100
AcDbEntity
  8
0
  6
Continuous
 62
     7
100
AcDbLine
 10
-61.0327095258527
 20
69.14294004327398
 30
0.0
 11
-61.0327095258527
 21
75.19294004327399
 31
0.0
  0
LINE
  5
19B
330
1F
100
AcDbEntity
  8
0
  6
Continuous
 62
     7
100
AcDbLine
 10
-61.0327095258527
 20
75.19294004327399
 30
0.0
 11
-61.0327095258527
 21
75.94294004327396
 31
0.0
  0
LINE
  5
19C
330
1F
100
AcDbEntity
  8
0
  6
Continuous
 62
     7
100
AcDbLine
 10
-59.23270952585268
 20
75.19294004327399
 30
0.0
 11
-61.0327095258527
 21
75.19294004327399
 31
0.0
  0
LINE
  5
19D
330
1F
100
AcDbEntity
  8
0
  6
Continuous
 62
     7
100
AcDbLine
 10
-56.5327095258527
 20
91.9929400432751
 30
0.0
 11
-56.5327095258527
 21
69.14294004327398
 31
0.0
  0
LINE
  5
19E
330
1F
100
AcDbEntity
  8
0
  6
Continuous
 62
     7
100
AcDbLine
 10
-70.5042046808285
 20
89.69294004327385
 30
0.0
 11
-68.83270952585282
 21
89.69294004327402
 31
0.0
  0
LINE
  5
19F
330
1F
100
AcDbEntity
  8
0
  6
Continuous
 62
     7
100
AcDbLine
 10
-71.5327095258527
 20
89.69294004327402
 30
0.0
 11
-71.60208988879448
 21
89.69294004327388
 31
0.0
  0
LINE
  5
1A0
330
1F
100
AcDbEntity
  8
0
  6
Continuous
 62
     7
100
AcDbLine
 10
-70.8981052305884
 20
89.69294004327385
 30
0.0
 11
-70.8959158440875
 21
89.69294004327399
 31
0.0
  0
LINE
  5
1A1
330
1F
100
AcDbEntity
  8
0
  6
Continuous
 62
     7
100
AcDbLine
 10
-70.5645114743187
 20
89.69294004327368
 30
0.0
 11
-70.5042046808285
 21
89.69294004327385
 31
0.0
  0
LINE
  5
1A2
330
1F
100
AcDbEntity
  8
0
  6
Continuous
 62
     7
100
AcDbLine
 10
-70.8959158440875
 20
89.69294004327399
 30
0.0
 11
-70.5645114743187
 21
89.69294004327368
 31
0.0
  0
LINE
  5
1A3
330
1F
100
AcDbEntity
  8
0
  6
Continuous
 62
     7
100
AcDbLine
 10
-71.60208988879448
 20
89.69294004327388
 30
0.0
 11
-71.99599043855433
 21
89.69294004327388
 31
0.0
  0
LINE
  5
1A4
330
1F
100
AcDbEntity
  8
0
  6
Continuous
 62
     7
100
AcDbLine
 10
-71.5327095258527
 20
89.69294004327402
 30
0.0
 11
-70.8981052305884
 21
89.69294004327385
 31
0.0
  0
LINE
  5
1A5
330
1F
100
AcDbEntity
  8
0
  6
Continuous
 62
     7
100
AcDbLine
 10
-54.31372324200443
 20
91.99294004327358
 30
0.0
 11
-53.5327095258527
 21
91.99294004327494
 31
0.0
  0
LINE
  5
1A6
330
1F
100
AcDbEntity
  8
0
  6
Continuous
 62
     7
100
AcDbLine
 10
-54.66727663259759
 20
91.99294004327467
 30
0.0
 11
-54.5327095258527
 21
91.99294004327494
 31
0.0
  0
LINE
  5
1A7
330
1F
100
AcDbEntity
  8
0
  6
Continuous
 62
     7
100
AcDbLine
 10
-54.42834798837642
 20
91.9929400432739
 30
0.0
 11
-54.34301256388569
 21
91.99294004327358
 31
0.0
  0
LINE
  5
1A8
330
1F
100
AcDbEntity
  8
0
  6
Continuous
 62
     7
100
AcDbLine
 10
-54.5327095258527
 20
91.99294004327494
 30
0.0
 11
-54.4552126182145
 21
91.9929400432739
 31
0.0
  0
LINE
  5
1A9
330
1F
100
AcDbEntity
  8
0
  6
Continuous
 62
     7
100
AcDbLine
 10
-54.4552126182145
 20
91.9929400432739
 30
0.0
 11
-54.42834798837642
 21
91.9929400432739
 31
0.0
  0
LINE
  5
1AA
330
1F
100
AcDbEntity
  8
0
  6
Continuous
 62
     7
100
AcDbLine
 10
-54.34301256388569
 20
91.99294004327358
 30
0.0
 11
-54.31372324200443
 21
91.99294004327358
 31
0.0
  0
LINE
  5
1AB
330
1F
100
AcDbEntity
  8
0
  6
Continuous
 62
     7
100
AcDbLine
 10
-67.0327095258527
 20
76.99294004327398
 30
0.0
 11
-68.83270952585282
 21
75.19294004327399
 31
0.0
  0
LINE
  5
1AC
330
1F
100
AcDbEntity
  8
0
  6
Continuous
 62
     7
100
AcDbLine
 10
-68.83270952585282
 20
89.69294004327402
 30
0.0
 11
-68.83270952585282
 21
75.19294004327399
 31
0.0
  0
LINE
  5
1AD
330
1F
100
AcDbEntity
  8
0
  6
Continuous
 62
     7
100
AcDbLine
 10
-71.5327095258527
 20
69.14294004327398
 30
0.0
 11
-71.5327095258527
 21
89.69294004327402
 31
0.0
  0
LINE
  5
1AE
330
1F
100
AcDbEntity
  8
0
  6
Continuous
 62
     7
100
AcDbLine
 10
-61.0327095258527
 20
62.99294004327398
 30
0.0
 11
-67.0327095258527
 21
62.99294004327398
 31
0.0
  0
LINE
  5
1AF
330
1F
100
AcDbEntity
  8
0
  6
Continuous
 62
     7
100
AcDbLine
 10
-61.0327095258527
 20
62.99294004327398
 30
0.0
 11
-61.0327095258527
 21
66.842940043274
 31
0.0
  0
LINE
  5
1B0
330
1F
100
AcDbEntity
  8
0
  6
Continuous
 62
     7
100
AcDbLine
 10
-56.5327095258527
 20
62.99294004327398
 30
0.0
 11
-61.0327095258527
 21
62.99294004327398
 31
0.0
  0
LINE
  5
1B1
330
1F
100
AcDbEntity
  8
0
  6
Continuous
 62
     7
100
AcDbLine
 10
-56.5327095258527
 20
62.99294004327398
 30
0.0
 11
-54.2827095258527
 21
62.99294004327392
 31
0.0
  0
LINE
  5
1B2
330
1F
100
AcDbEntity
  8
0
  6
Continuous
 62
     7
100
AcDbLine
 10
-56.5327095258527
 20
62.99294004327398
 30
0.0
 11
-56.5327095258527
 21
66.842940043274
 31
0.0
  0
LINE
  5
1B3
330
1F
100
AcDbEntity
  8
0
  6
Continuous
 62
     7
100
AcDbLine
 10
-54.2827095258527
 20
62.99294004327392
 30
0.0
 11
-54.2827095258527
 21
66.84294004327442
 31
0.0
  0
LINE
  5
1B4
330
1F
100
AcDbEntity
  8
0
  6
Continuous
 62
     7
100
AcDbLine
 10
-53.5327095258527
 20
62.99294004327369
 30
0.0
 11
-54.2827095258527
 21
62.99294004327392
 31
0.0
  0
LINE
  5
1B5
330
1F
100
AcDbEntity
  8
0
  6
Continuous
 62
     7
100
AcDbLine
 10
-53.5327095258527
 20
66.84294004327442
 30
0.0
 11
-53.5327095258527
 21
62.99294004327369
 31
0.0
  0
LINE
  5
1B6
330
1F
100
AcDbEntity
  8
0
  6
Continuous
 62
     7
100
AcDbLine
 10
-53.5327095258527
 20
69.14294004327444
 30
0.0
 11
-53.5327095258527
 21
91.99294004327494
 31
0.0
  0
LINE
  5
1B7
330
1F
100
AcDbEntity
  8
0
  6
Continuous
 62
     7
100
AcDbLine
 10
-71.5327095258527
 20
91.99294004327379
 30
0.0
 11
-71.5327095258527
 21
89.69294004327402
 31
0.0
  0
LINE
  5
1B8
330
1F
100
AcDbEntity
  8
0
  6
Continuous
 62
     7
100
AcDbLine
 10
-74.5327095258527
 20
91.99294004327494
 30
0.0
 11
-74.5327095258527
 21
89.69294004327394
 31
0.0
  0
LINE
  5
1B9
330
1F
100
AcDbEntity
  8
0
  6
Continuous
 62
     7
100
AcDbLine
 10
-73.65415417398249
 20
89.69294004327394
 30
0.0
 11
-73.68724111334673
 21
89.69294004327394
 31
0.0
  0
LINE
  5
1BA
330
1F
100
AcDbEntity
  8
0
  6
Continuous
 62
     7
100
AcDbLine
 10
-73.68724111334673
 20
89.69294004327394
 30
0.0
 11
-74.5327095258527
 21
89.69294004327394
 31
0.0
  0
LINE
  5
1BB
330
1F
100
AcDbEntity
  8
0
  6
Continuous
 62
     7
100
AcDbLine
 10
-71.99599043855433
 20
89.69294004327388
 30
0.0
 11
-73.65415417398249
 21
89.69294004327394
 31
0.0
  0
LINE
  5
1BC
330
1F
100
AcDbEntity
  8
0
  6
Continuous
 62
     7
100
AcDbLine
 10
-74.5327095258527
 20
69.14294004327444
 30
0.0
 11
-74.5327095258527
 21
89.69294004327394
 31
0.0
  0
LINE
  5
1BD
330
1F
100
AcDbEntity
  8
0
  6
Continuous
 62
     7
100
AcDbLine
 10
-74.5327095258527
 20
62.99294004327369
 30
0.0
 11
-74.5327095258527
 21
66.84294004327442
 31
0.0
  0
LINE
  5
1BE
330
1F
100
AcDbEntity
  8
0
  6
Continuous
 62
     7
100
AcDbLine
 10
-67.0327095258527
 20
62.99294004327398
 30
0.0
 11
-67.0327095258527
 21
66.842940043274
 31
0.0
  0
LINE
  5
1BF
330
1F
100
AcDbEntity
  8
0
  6
Continuous
 62
     7
100
AcDbLine
 10
-71.5327095258527
 20
62.99294004327398
 30
0.0
 11
-71.5327095258527
 21
66.842940043274
 31
0.0
  0
LINE
  5
1C0
330
1F
100
AcDbEntity
  8
0
  6
Continuous
 62
     7
100
AcDbLine
 10
-67.0327095258527
 20
62.99294004327398
 30
0.0
 11
-71.5327095258527
 21
62.99294004327398
 31
0.0
  0
LINE
  5
1C1
330
1F
100
AcDbEntity
  8
0
  6
Continuous
 62
     7
100
AcDbLine
 10
-73.7827095258527
 20
62.99294004327383
 30
0.0
 11
-73.7827095258527
 21
66.84294004327442
 31
0.0
  0
LINE
  5
1C2
330
1F
100
AcDbEntity
  8
0
  6
Continuous
 62
     7
100
AcDbLine
 10
-73.7827095258527
 20
62.99294004327383
 30
0.0
 11
-74.5327095258527
 21
62.99294004327369
 31
0.0
  0
LINE
  5
1C3
330
1F
100
AcDbEntity
  8
0
  6
Continuous
 62
     7
100
AcDbLine
 10
-71.5327095258527
 20
62.99294004327398
 30
0.0
 11
-73.7827095258527
 21
62.99294004327383
 31
0.0
  0
LINE
  5
1C4
330
1F
100
AcDbEntity
  8
0
  6
Continuous
 62
     7
100
AcDbLine
 10
-67.0327095258527
 20
75.19294004327399
 30
0.0
 11
-67.0327095258527
 21
69.14294004327398
 31
0.0
  0
LINE
  5
1C5
330
1F
100
AcDbEntity
  8
0
  6
Continuous
 62
     7
100
AcDbLine
 10
-67.0327095258527
 20
75.19294004327399
 30
0.0
 11
-68.83270952585282
 21
75.19294004327399
 31
0.0
  0
LINE
  5
1C6
330
1F
100
AcDbEntity
  8
0
  6
Continuous
 62
     7
100
AcDbLine
 10
-67.0327095258527
 20
75.19294004327399
 30
0.0
 11
-67.0327095258527
 21
75.94294004327396
 31
0.0
  0
LINE
  5
1C7
330
1F
100
AcDbEntity
  8
0
  6
Continuous
 62
     7
100
AcDbLine
 10
-68.2652695465102
 20
89.69294004327377
 30
0.0
 11
-67.82768225539299
 21
89.69294004327394
 31
0.0
  0
LINE
  5
1C8
330
1F
100
AcDbEntity
  8
0
  6
Continuous
 62
     7
100
AcDbLine
 10
-67.82768225539299
 20
89.69294004327394
 30
0.0
 11
-67.5705774914967
 21
89.69294004327374
 31
0.0
  0
LINE
  5
1C9
330
1F
100
AcDbEntity
  8
0
  6
Continuous
 62
     7
100
AcDbLine
 10
-68.48094089719349
 20
89.6929400432736
 30
0.0
 11
-68.2652695465102
 21
89.69294004327377
 31
0.0
  0
LINE
  5
1CA
330
1F
100
AcDbEntity
  8
0
  6
Continuous
 62
     7
100
AcDbLine
 10
-68.77900401347911
 20
89.69294004327382
 30
0.0
 11
-68.58460870315032
 21
89.69294004327377
 31
0.0
  0
LINE
  5
1CB
330
1F
100
AcDbEntity
  8
0
  6
Continuous
 62
     7
100
AcDbLine
 10
-68.83270952585282
 20
89.69294004327402
 30
0.0
 11
-68.77900401347911
 21
89.69294004327382
 31
0.0
  0
LINE
  5
1CC
330
1F
100
AcDbEntity
  8
0
  6
Continuous
 62
     7
100
AcDbLine
 10
-68.58460870315032
 20
89.69294004327377
 30
0.0
 11
-68.48094089719349
 21
89.6929400432736
 31
0.0
  0
LINE
  5
1CD
330
1F
100
AcDbEntity
  8
0
  6
Continuous
 62
     7
100
AcDbLine
 10
-67.4461113588559
 20
89.69294004327399
 30
0.0
 11
-67.3651814968954
 21
89.69294004327394
 31
0.0
  0
LINE
  5
1CE
330
1F
100
AcDbEntity
  8
0
  6
Continuous
 62
     7
100
AcDbLine
 10
-67.3651814968954
 20
89.69294004327394
 30
0.0
 11
-67.2990076181671
 21
89.69294004327394
 31
0.0
  0
LINE
  5
1CF
330
1F
100
AcDbEntity
  8
0
  6
Continuous
 62
     7
100
AcDbLine
 10
-67.2990076181671
 20
89.69294004327394
 30
0.0
 11
-67.28773477902207
 21
89.69294004327399
 31
0.0
  0
LINE
  5
1D0
330
1F
100
AcDbEntity
  8
0
  6
Continuous
 62
     7
100
AcDbLine
 10
-67.5705774914967
 20
89.69294004327374
 30
0.0
 11
-67.4461113588559
 21
89.69294004327399
 31
0.0
  0
LINE
  5
1D1
330
1F
100
AcDbEntity
  8
0
  6
Continuous
 62
     7
100
AcDbLine
 10
-67.1144797097814
 20
89.69294004327377
 30
0.0
 11
-67.0327095258527
 21
89.69294004327399
 31
0.0
  0
LINE
  5
1D2
330
1F
100
AcDbEntity
  8
0
  6
Continuous
 62
     7
100
AcDbLine
 10
-67.28773477902207
 20
89.69294004327399
 30
0.0
 11
-67.1144797097814
 21
89.69294004327377
 31
0.0
  0
LINE
  5
1D3
330
1F
100
AcDbEntity
  8
0
  6
Continuous
 62
     7
100
AcDbLine
 10
-56.5327095258527
 20
91.9929400432751
 30
0.0
 11
-56.81788629803869
 21
91.99294004327461
 31
0.0
  0
LINE
  5
1D4
330
1F
100
AcDbEntity
  8
0
  6
Continuous
 62
     7
100
AcDbLine
 10
-56.30154372453877
 20
91.99294004327496
 30
0.0
 11
-56.38270952585272
 21
91.99294004327486
 31
0.0
  0
LINE
  5
1D5
330
1F
100
AcDbEntity
  8
0
  6
Continuous
 62
     7
100
AcDbLine
 10
-55.0327095258527
 20
91.9929400432748
 30
0.0
 11
-56.25220087308942
 21
91.99294004327471
 31
0.0
  0
LINE
  5
1D6
330
1F
100
AcDbEntity
  8
0
  6
Continuous
 62
     7
100
AcDbLine
 10
-56.38270952585272
 20
91.99294004327486
 30
0.0
 11
-56.52094983502458
 21
91.99294004327496
 31
0.0
  0
LINE
  5
1D7
330
1F
100
AcDbEntity
  8
0
  6
Continuous
 62
     7
100
AcDbLine
 10
-56.25220087308942
 20
91.99294004327471
 30
0.0
 11
-56.30154372453877
 21
91.99294004327496
 31
0.0
  0
LINE
  5
1D8
330
1F
100
AcDbEntity
  8
0
  6
Continuous
 62
     7
100
AcDbLine
 10
-55.0327095258527
 20
91.9929400432748
 30
0.0
 11
-54.81595393486829
 21
91.992940043275
 31
0.0
  0
LINE
  5
1D9
330
1F
100
AcDbEntity
  8
0
  6
Continuous
 62
     7
100
AcDbLine
 10
-54.81595393486829
 20
91.992940043275
 30
0.0
 11
-54.78908930503032
 21
91.992940043275
 31
0.0
  0
LINE
  5
1DA
330
1F
100
AcDbEntity
  8
0
  6
Continuous
 62
     7
100
AcDbLine
 10
-54.78908930503032
 20
91.992940043275
 30
0.0
 11
-54.73270952585268
 21
91.99294004327378
 31
0.0
  0
LINE
  5
1DB
330
1F
100
AcDbEntity
  8
0
  6
Continuous
 62
     7
100
AcDbLine
 10
-54.73270952585268
 20
91.99294004327378
 30
0.0
 11
-54.69656595447903
 21
91.99294004327466
 31
0.0
  0
LINE
  5
1DC
330
1F
100
AcDbEntity
  8
0
  6
Continuous
 62
     7
100
AcDbLine
 10
-54.69656595447903
 20
91.99294004327466
 30
0.0
 11
-54.66727663259759
 21
91.99294004327467
 31
0.0
  0
LINE
  5
1DD
330
1F
100
AcDbEntity
  8
0
  6
Continuous
 62
     7
100
AcDbLine
 10
-59.23270952585268
 20
94.492940043274
 30
0.0
 11
-56.5327095258527
 21
94.492940043274
 31
0.0
  0
LINE
  5
1DE
330
1F
100
AcDbEntity
  8
0
  6
Continuous
 62
     7
100
AcDbLine
 10
-57.26770952585271
 20
91.99294004327484
 30
0.0
 11
-57.43270952585273
 21
91.99294004327484
 31
0.0
  0
LINE
  5
1DF
330
1F
100
AcDbEntity
  8
0
  6
Continuous
 62
     7
100
AcDbLine
 10
-57.07148405723019
 20
91.99294004327496
 30
0.0
 11
-57.17143968863191
 21
91.99294004327352
 31
0.0
  0
LINE
  5
1E0
330
1F
100
AcDbEntity
  8
0
  6
Continuous
 62
     7
100
AcDbLine
 10
-57.17143968863191
 20
91.99294004327352
 30
0.0
 11
-57.26770952585271
 21
91.99294004327484
 31
0.0
  0
LINE
  5
1E1
330
1F
100
AcDbEntity
  8
0
  6
Continuous
 62
     7
100
AcDbLine
 10
-56.81788629803869
 20
91.99294004327461
 30
0.0
 11
-56.95930765427598
 21
91.99294004327461
 31
0.0
  0
LINE
  5
1E2
330
1F
100
AcDbEntity
  8
0
  6
Continuous
 62
     7
100
AcDbLine
 10
-56.95930765427598
 20
91.99294004327461
 30
0.0
 11
-57.03001833239462
 21
91.99294004327352
 31
0.0
  0
LINE
  5
1E3
330
1F
100
AcDbEntity
  8
0
  6
Continuous
 62
     7
100
AcDbLine
 10
-57.03001833239462
 20
91.99294004327352
 30
0.0
 11
-57.07148405723019
 21
91.99294004327496
 31
0.0
  0
LINE
  5
1E4
330
1F
100
AcDbEntity
  8
0
  6
Continuous
 62
     7
100
AcDbLine
 10
-56.5327095258527
 20
91.9929400432751
 30
0.0
 11
-56.52094983502458
 21
91.99294004327496
 31
0.0
  0
LINE
  5
1E5
330
1F
100
AcDbEntity
  8
0
  6
Continuous
 62
     7
100
AcDbLine
 10
-56.5327095258527
 20
91.9929400432751
 30
0.0
 11
-56.5327095258527
 21
94.492940043274
 31
0.0
  0
LINE
  5
1E6
330
1F
100
AcDbEntity
  8
0
  6
Continuous
 62
     7
100
AcDbLine
 10
-59.13702920076862
 20
91.99294004327483
 30
0.0
 11
-59.23270952585268
 21
91.9929400432751
 31
0.0
  0
LINE
  5
1E7
330
1F
100
AcDbEntity
  8
0
  6
Continuous
 62
     7
100
AcDbLine
 10
-59.23270952585268
 20
91.9929400432751
 30
0.0
 11
-59.2655451620878
 21
91.992940043275
 31
0.0
  0
LINE
  5
1E8
330
1F
100
AcDbEntity
  8
0
  6
Continuous
 62
     7
100
AcDbLine
 10
-59.2655451620878
 20
91.992940043275
 30
0.0
 11
-59.36113665059891
 21
91.99294004327356
 31
0.0
  0
LINE
  5
1E9
330
1F
100
AcDbEntity
  8
0
  6
Continuous
 62
     7
100
AcDbLine
 10
-57.50090757738668
 20
91.99294004327476
 30
0.0
 11
-58.2827095258527
 21
91.99294004327375
 31
0.0
  0
LINE
  5
1EA
330
1F
100
AcDbEntity
  8
0
  6
Continuous
 62
     7
100
AcDbLine
 10
-58.7270746072423
 20
91.99294004327466
 30
0.0
 11
-58.86128168020589
 21
91.99294004327501
 31
0.0
  0
LINE
  5
1EB
330
1F
100
AcDbEntity
  8
0
  6
Continuous
 62
     7
100
AcDbLine
 10
-57.48960878788093
 20
91.99294004327491
 30
0.0
 11
-57.50090757738668
 21
91.99294004327476
 31
0.0
  0
LINE
  5
1EC
330
1F
100
AcDbEntity
  8
0
  6
Continuous
 62
     7
100
AcDbLine
 10
-57.43270952585273
 20
91.99294004327484
 30
0.0
 11
-57.48960878788093
 21
91.99294004327491
 31
0.0
  0
LINE
  5
1ED
330
1F
100
AcDbEntity
  8
0
  6
Continuous
 62
     7
100
AcDbLine
 10
-58.2827095258527
 20
91.99294004327375
 30
0.0
 11
-58.7270746072423
 21
91.99294004327466
 31
0.0
  0
LINE
  5
1EE
330
1F
100
AcDbEntity
  8
0
  6
Continuous
 62
     7
100
AcDbLine
 10
-58.86128168020589
 20
91.99294004327501
 30
0.0
 11
-59.0806877906917
 21
91.99294004327501
 31
0.0
  0
LINE
  5
1EF
330
1F
100
AcDbEntity
  8
0
  6
Continuous
 62
     7
100
AcDbLine
 10
-59.0806877906917
 20
91.99294004327501
 30
0.0
 11
-59.13702920076862
 21
91.99294004327483
 31
0.0
  0
LINE
  5
1F0
330
1F
100
AcDbEntity
  8
0
  6
Continuous
 62
     7
100
AcDbLine
 10
-60.83270952585271
 20
91.99294004327392
 30
0.0
 11
-61.0327095258527
 21
91.99294004327504
 31
0.0
  0
LINE
  5
1F1
330
1F
100
AcDbEntity
  8
0
  6
Continuous
 62
     7
100
AcDbLine
 10
-60.30863283338921
 20
91.99294004327498
 30
0.0
 11
-60.6440343912579
 21
91.99294004327396
 31
0.0
  0
LINE
  5
1F2
330
1F
100
AcDbEntity
  8
0
  6
Continuous
 62
     7
100
AcDbLine
 10
-60.6440343912579
 20
91.99294004327396
 30
0.0
 11
-60.83270952585271
 21
91.99294004327392
 31
0.0
  0
LINE
  5
1F3
330
1F
100
AcDbEntity
  8
0
  6
Continuous
 62
     7
100
AcDbLine
 10
-59.36113665059891
 20
91.99294004327356
 30
0.0
 11
-60.30863283338921
 21
91.99294004327498
 31
0.0
  0
LINE
  5
1F4
330
1F
100
AcDbEntity
  8
0
  6
Continuous
 62
     7
100
AcDbLine
 10
-68.83270952585282
 20
94.492940043274
 30
0.0
 11
-67.0327095258527
 21
94.49294004327395
 31
0.0
  0
LINE
  5
1F5
330
1F
100
AcDbEntity
  8
0
  6
Continuous
 62
     7
100
AcDbLine
 10
-59.23270952585268
 20
91.9929400432751
 30
0.0
 11
-59.23270952585268
 21
94.492940043274
 31
0.0
  0
LINE
  5
1F6
330
1F
100
AcDbEntity
  8
0
  6
Continuous
 62
     7
100
AcDbLine
 10
-61.0327095258527
 20
94.49294004327395
 30
0.0
 11
-59.23270952585268
 21
94.492940043274
 31
0.0
  0
LINE
  5
1F7
330
1F
100
AcDbEntity
  8
0
  6
Continuous
 62
     7
100
AcDbLine
 10
-70.5042046808285
 20
89.69294004327385
 30
0.0
 11
-68.83270952585282
 21
89.69294004327402
 31
0.0
  0
LINE
  5
1F8
330
1F
100
AcDbEntity
  8
0
  6
Continuous
 62
     7
100
AcDbLine
 10
-71.5327095258527
 20
89.69294004327402
 30
0.0
 11
-71.60208988879448
 21
89.69294004327388
 31
0.0
  0
LINE
  5
1F9
330
1F
100
AcDbEntity
  8
0
  6
Continuous
 62
     7
100
AcDbLine
 10
-70.8981052305884
 20
89.69294004327385
 30
0.0
 11
-70.8959158440875
 21
89.69294004327399
 31
0.0
  0
LINE
  5
1FA
330
1F
100
AcDbEntity
  8
0
  6
Continuous
 62
     7
100
AcDbLine
 10
-70.5645114743187
 20
89.69294004327368
 30
0.0
 11
-70.5042046808285
 21
89.69294004327385
 31
0.0
  0
LINE
  5
1FB
330
1F
100
AcDbEntity
  8
0
  6
Continuous
 62
     7
100
AcDbLine
 10
-70.8959158440875
 20
89.69294004327399
 30
0.0
 11
-70.5645114743187
 21
89.69294004327368
 31
0.0
  0
LINE
  5
1FC
330
1F
100
AcDbEntity
  8
0
  6
Continuous
 62
     7
100
AcDbLine
 10
-71.5327095258527
 20
89.69294004327402
 30
0.0
 11
-70.8981052305884
 21
89.69294004327385
 31
0.0
  0
LINE
  5
1FD
330
1F
100
AcDbEntity
  8
0
  6
Continuous
 62
     7
100
AcDbLine
 10
-53.5327095258527
 20
82.99294004327372
 30
0.0
 11
-53.5327095258527
 21
91.99294004327494
 31
0.0
  0
LINE
  5
1FE
330
1F
100
AcDbEntity
  8
0
  6
Continuous
 62
     7
100
AcDbLine
 10
-53.5327095258527
 20
79.99294004327383
 30
0.0
 11
-53.5327095258527
 21
82.99294004327372
 31
0.0
  0
LINE
  5
1FF
330
1F
100
AcDbEntity
  8
0
  6
Continuous
 62
     7
100
AcDbLine
 10
-67.0327095258527
 20
89.69294004327399
 30
0.0
 11
-67.0327095258527
 21
94.49294004327395
 31
0.0
  0
LINE
  5
200
330
1F
100
AcDbEntity
  8
0
  6
Continuous
 62
     7
100
AcDbLine
 10
-67.0327095258527
 20
94.49294004327395
 30
0.0
 11
-61.0327095258527
 21
94.49294004327395
 31
0.0
  0
LINE
  5
201
330
1F
100
AcDbEntity
  8
0
  6
Continuous
 62
     7
100
AcDbLine
 10
-61.0327095258527
 20
94.49294004327395
 30
0.0
 11
-61.0327095258527
 21
91.99294004327504
 31
0.0
  0
LINE
  5
202
330
1F
100
AcDbEntity
  8
0
  6
Continuous
 62
     7
100
AcDbLine
 10
-53.5327095258527
 20
94.4929400432737
 30
0.0
 11
-56.5327095258527
 21
94.492940043274
 31
0.0
  0
LINE
  5
203
330
1F
100
AcDbEntity
  8
0
  6
Continuous
 62
     7
100
AcDbLine
 10
-53.5327095258527
 20
94.4929400432737
 30
0.0
 11
-53.5327095258527
 21
91.99294004327494
 31
0.0
  0
LINE
  5
204
330
1F
100
AcDbEntity
  8
0
  6
Continuous
 62
     7
100
AcDbLine
 10
-54.31372324200443
 20
91.99294004327358
 30
0.0
 11
-53.5327095258527
 21
91.99294004327494
 31
0.0
  0
LINE
  5
205
330
1F
100
AcDbEntity
  8
0
  6
Continuous
 62
     7
100
AcDbLine
 10
-54.66727663259759
 20
91.99294004327467
 30
0.0
 11
-54.5327095258527
 21
91.99294004327494
 31
0.0
  0
LINE
  5
206
330
1F
100
AcDbEntity
  8
0
  6
Continuous
 62
     7
100
AcDbLine
 10
-54.42834798837642
 20
91.9929400432739
 30
0.0
 11
-54.34301256388569
 21
91.99294004327358
 31
0.0
  0
LINE
  5
207
330
1F
100
AcDbEntity
  8
0
  6
Continuous
 62
     7
100
AcDbLine
 10
-54.5327095258527
 20
91.99294004327494
 30
0.0
 11
-54.4552126182145
 21
91.9929400432739
 31
0.0
  0
LINE
  5
208
330
1F
100
AcDbEntity
  8
0
  6
Continuous
 62
     7
100
AcDbLine
 10
-54.4552126182145
 20
91.9929400432739
 30
0.0
 11
-54.42834798837642
 21
91.9929400432739
 31
0.0
  0
LINE
  5
209
330
1F
100
AcDbEntity
  8
0
  6
Continuous
 62
     7
100
AcDbLine
 10
-54.34301256388569
 20
91.99294004327358
 30
0.0
 11
-54.31372324200443
 21
91.99294004327358
 31
0.0
  0
LINE
  5
20A
330
1F
100
AcDbEntity
  8
0
  6
Continuous
 62
     7
100
AcDbLine
 10
-71.5327095258527
 20
94.492940043274
 30
0.0
 11
-68.83270952585282
 21
94.492940043274
 31
0.0
  0
LINE
  5
20B
330
1F
100
AcDbEntity
  8
0
  6
Continuous
 62
     7
100
AcDbLine
 10
-68.83270952585282
 20
89.69294004327402
 30
0.0
 11
-68.83270952585282
 21
94.492940043274
 31
0.0
  0
LINE
  5
20C
330
1F
100
AcDbEntity
  8
0
  6
Continuous
 62
     7
100
AcDbLine
 10
-71.5327095258527
 20
94.492940043274
 30
0.0
 11
-71.5327095258527
 21
89.69294004327402
 31
0.0
  0
LINE
  5
20D
330
1F
100
AcDbEntity
  8
0
  6
Continuous
 62
     7
100
AcDbLine
 10
-71.5327095258527
 20
94.492940043274
 30
0.0
 11
-74.5327095258527
 21
94.49294004327392
 31
0.0
  0
LINE
  5
20E
330
1F
100
AcDbEntity
  8
0
  6
Continuous
 62
     7
100
AcDbLine
 10
-74.5327095258527
 20
94.49294004327392
 30
0.0
 11
-74.5327095258527
 21
91.99294004327494
 31
0.0
  0
LINE
  5
20F
330
1F
100
AcDbEntity
  8
0
  6
Continuous
 62
     7
100
AcDbLine
 10
-74.5327095258527
 20
91.99294004327494
 30
0.0
 11
-74.5327095258527
 21
89.69294004327394
 31
0.0
  0
LINE
  5
210
330
1F
100
AcDbEntity
  8
0
  6
Continuous
 62
     7
100
AcDbLine
 10
-74.5327095258527
 20
89.69294004327394
 30
0.0
 11
-74.5327095258527
 21
82.99294004327369
 31
0.0
  0
LINE
  5
211
330
1F
100
AcDbEntity
  8
0
  6
Continuous
 62
     7
100
AcDbLine
 10
-74.5327095258527
 20
82.99294004327369
 30
0.0
 11
-74.5327095258527
 21
79.99294004327383
 31
0.0
  0
LINE
  5
212
330
1F
100
AcDbEntity
  8
0
  6
Continuous
 62
     7
100
AcDbLine
 10
-71.60208988879448
 20
89.69294004327388
 30
0.0
 11
-74.5327095258527
 21
89.69294004327394
 31
0.0
  0
LINE
  5
213
330
1F
100
AcDbEntity
  8
0
  6
Continuous
 62
     7
100
AcDbLine
 10
-66.3327095258527
 20
127.6729400432739
 30
0.0
 11
-71.2827095258527
 21
127.6729400432739
 31
0.0
  0
LINE
  5
214
330
1F
100
AcDbEntity
  8
0
  6
Continuous
 62
     7
100
AcDbLine
 10
-66.3327095258527
 20
125.6729400432739
 30
0.0
 11
-71.2827095258527
 21
125.6729400432739
 31
0.0
  0
LINE
  5
215
330
1F
100
AcDbEntity
  8
0
  6
Continuous
 62
     7
100
AcDbLine
 10
-63.23270952585274
 20
124.1729400432739
 30
0.0
 11
-63.23270952585274
 21
119.4229400432739
 31
0.0
  0
LINE
  5
216
330
1F
100
AcDbEntity
  8
0
  6
Continuous
 62
     7
100
AcDbLine
 10
-56.7827095258527
 20
125.6729400432739
 30
0.0
 11
-61.73270952585274
 21
125.6729400432739
 31
0.0
  0
LINE
  5
217
330
1F
100
AcDbEntity
  8
0
  6
Continuous
 62
     7
100
AcDbLine
 10
-56.78270971235374
 20
120.422940043274
 30
0.0
 11
-56.7827095258527
 21
125.6729400432739
 31
0.0
  0
LINE
  5
218
330
1F
100
AcDbEntity
  8
0
  6
Continuous
 62
     7
100
AcDbLine
 10
-64.8327095258527
 20
119.4229400432739
 30
0.0
 11
-64.8327095258527
 21
124.1729400432739
 31
0.0
  0
LINE
  5
219
330
1F
100
AcDbEntity
  8
0
  6
Continuous
 62
     7
100
AcDbLine
 10
-56.7827095258527
 20
127.6729400432739
 30
0.0
 11
-61.73270952585274
 21
127.6729400432739
 31
0.0
  0
LINE
  5
21A
102
{ACAD_REACTORS
330
36C
102
}
330
1F
100
AcDbEntity
  8
0
  6
Continuous
 62
     7
100
AcDbLine
 10
-54.2827095258527
 20
122.1729400432742
 30
0.0
 11
-54.2827095258527
 21
119.172940043274
 31
0.0
  0
LINE
  5
21B
102
{ACAD_REACTORS
330
36C
102
}
330
1F
100
AcDbEntity
  8
0
  6
Continuous
 62
     7
100
AcDbLine
 10
-54.2827095258527
 20
134.172940043274
 30
0.0
 11
-54.2827095258527
 21
131.172940043274
 31
0.0
  0
LINE
  5
21C
102
{ACAD_REACTORS
330
36C
102
}
330
1F
100
AcDbEntity
  8
0
  6
Continuous
 62
     7
100
AcDbLine
 10
-54.73270952585274
 20
125.1729400432736
 30
0.0
 11
-54.73270952585274
 21
128.1729400432736
 31
0.0
  0
LINE
  5
21D
330
1F
100
AcDbEntity
  8
0
  6
Continuous
 62
     7
100
AcDbLine
 10
-56.7827095258527
 20
125.6729400432739
 30
0.0
 11
-56.7827095258527
 21
132.9229400432742
 31
0.0
  0
LINE
  5
21E
330
1F
100
AcDbEntity
  8
0
  6
Continuous
 62
     7
100
AcDbLine
 10
-64.8327095258527
 20
132.3104884936142
 30
0.0
 11
-64.8327095258527
 21
129.1729400432739
 31
0.0
  0
LINE
  5
21F
330
1F
100
AcDbEntity
  8
0
  6
Continuous
 62
     7
100
AcDbLine
 10
-63.23270952585274
 20
129.1729400432739
 30
0.0
 11
-63.23270952585274
 21
132.3104884936142
 31
0.0
  0
LINE
  5
220
102
{ACAD_REACTORS
330
36C
102
}
330
1F
100
AcDbEntity
  8
0
  6
Continuous
 62
     7
100
AcDbLine
 10
-53.5327095258527
 20
125.1729400432736
 30
0.0
 11
-54.73270952585274
 21
125.1729400432736
 31
0.0
  0
LINE
  5
221
102
{ACAD_REACTORS
330
36C
102
}
330
1F
100
AcDbEntity
  8
0
  6
Continuous
 62
     7
100
AcDbLine
 10
-53.5327095258527
 20
128.1729400432736
 30
0.0
 11
-54.73270952585274
 21
128.1729400432736
 31
0.0
  0
LINE
  5
222
102
{ACAD_REACTORS
330
36C
102
}
330
1F
100
AcDbEntity
  8
0
  6
Continuous
 62
     7
100
AcDbLine
 10
-54.2827095258527
 20
131.172940043274
 30
0.0
 11
-53.5327095258527
 21
131.172940043274
 31
0.0
  0
LINE
  5
223
102
{ACAD_REACTORS
330
36C
102
}
330
1F
100
AcDbEntity
  8
0
  6
Continuous
 62
     7
100
AcDbLine
 10
-53.5327095258527
 20
128.1729400432736
 30
0.0
 11
-53.5327095258527
 21
131.172940043274
 31
0.0
  0
LINE
  5
224
102
{ACAD_REACTORS
330
36C
102
}
330
1F
100
AcDbEntity
  8
0
  6
Continuous
 62
     7
100
AcDbLine
 10
-54.2827095258527
 20
122.1729400432742
 30
0.0
 11
-53.5327095258527
 21
122.1729400432742
 31
0.0
  0
LINE
  5
225
102
{ACAD_REACTORS
330
36C
102
}
330
1F
100
AcDbEntity
  8
0
  6
Continuous
 62
     7
100
AcDbLine
 10
-53.5327095258527
 20
122.1729400432742
 30
0.0
 11
-53.5327095258527
 21
125.1729400432736
 31
0.0
  0
LINE
  5
226
330
1F
100
AcDbEntity
  8
0
  6
Continuous
 62
     7
100
AcDbLine
 10
-66.27770395791704
 20
133.9229400566164
 30
0.0
 11
-70.2827095258527
 21
133.9229400432742
 31
0.0
  0
LINE
  5
227
102
{ACAD_REACTORS
330
36C
102
}
330
1F
100
AcDbEntity
  8
0
  6
Continuous
 62
     7
100
AcDbLine
 10
-73.7827095258527
 20
119.172940043274
 30
0.0
 11
-73.7827095258527
 21
122.172940043274
 31
0.0
  0
LINE
  5
228
102
{ACAD_REACTORS
330
36C
102
}
330
1F
100
AcDbEntity
  8
0
  6
Continuous
 62
     7
100
AcDbLine
 10
-73.7827095258527
 20
131.172940043274
 30
0.0
 11
-73.7827095258527
 21
134.172940043274
 31
0.0
  0
LINE
  5
229
102
{ACAD_REACTORS
330
36C
102
}
330
1F
100
AcDbEntity
  8
0
  6
Continuous
 62
     7
100
AcDbLine
 10
-74.5327095258527
 20
131.172940043274
 30
0.0
 11
-73.7827095258527
 21
131.172940043274
 31
0.0
  0
LINE
  5
22A
102
{ACAD_REACTORS
330
36C
102
}
330
1F
100
AcDbEntity
  8
0
  6
Continuous
 62
     7
100
AcDbLine
 10
-74.5327095258527
 20
125.1729400432736
 30
0.0
 11
-74.5327095258527
 21
122.172940043274
 31
0.0
  0
LINE
  5
22B
102
{ACAD_REACTORS
330
36C
102
}
330
1F
100
AcDbEntity
  8
0
  6
Continuous
 62
     7
100
AcDbLine
 10
-74.5327095258527
 20
131.172940043274
 30
0.0
 11
-74.5327095258527
 21
128.1729400432736
 31
0.0
  0
LINE
  5
22C
102
{ACAD_REACTORS
330
36C
102
}
330
1F
100
AcDbEntity
  8
0
  6
Continuous
 62
     7
100
AcDbLine
 10
-73.7827095258527
 20
122.172940043274
 30
0.0
 11
-74.5327095258527
 21
122.172940043274
 31
0.0
  0
LINE
  5
22D
102
{ACAD_REACTORS
330
36C
102
}
330
1F
100
AcDbEntity
  8
0
  6
Continuous
 62
     7
100
AcDbLine
 10
-74.5327095258527
 20
125.1729400432736
 30
0.0
 11
-73.3327095258527
 21
125.1729400432736
 31
0.0
  0
LINE
  5
22E
102
{ACAD_REACTORS
330
36C
102
}
330
1F
100
AcDbEntity
  8
0
  6
Continuous
 62
     7
100
AcDbLine
 10
-74.5327095258527
 20
128.1729400432736
 30
0.0
 11
-73.3327095258527
 21
128.1729400432736
 31
0.0
  0
LINE
  5
22F
102
{ACAD_REACTORS
330
36C
102
}
330
1F
100
AcDbEntity
  8
0
  6
Continuous
 62
     7
100
AcDbLine
 10
-73.3327095258527
 20
125.1729400432736
 30
0.0
 11
-73.3327095258527
 21
128.1729400432736
 31
0.0
  0
LINE
  5
230
330
1F
100
AcDbEntity
  8
0
  6
Continuous
 62
     7
100
AcDbLine
 10
-71.2827095258527
 20
132.9229400432742
 30
0.0
 11
-71.2827095258527
 21
120.4229400432742
 31
0.0
  0
LINE
  5
231
102
{ACAD_REACTORS
330
36C
102
}
330
1F
100
AcDbEntity
  8
0
  6
Continuous
 62
     7
100
AcDbLine
 10
-71.5327095258527
 20
136.422940043274
 30
0.0
 11
-67.0327095258527
 21
136.422940043274
 31
0.0
  0
LINE
  5
232
102
{ACAD_REACTORS
330
36C
102
}
330
1F
100
AcDbEntity
  8
0
  6
Continuous
 62
     7
100
AcDbLine
 10
-67.0327095258527
 20
116.922940043274
 30
0.0
 11
-71.5327095258527
 21
116.922940043274
 31
0.0
  0
LINE
  5
233
102
{ACAD_REACTORS
330
36C
102
}
330
1F
100
AcDbEntity
  8
0
  6
Continuous
 62
     7
100
AcDbLine
 10
-56.5327095258527
 20
116.922940043274
 30
0.0
 11
-61.0327095258527
 21
116.9229400432742
 31
0.0
  0
LINE
  5
234
102
{ACAD_REACTORS
330
36C
102
}
330
1F
100
AcDbEntity
  8
0
  6
Continuous
 62
     7
100
AcDbLine
 10
-67.0327095258527
 20
116.172940043274
 30
0.0
 11
-61.0327095258527
 21
116.1729400432742
 31
0.0
  0
LINE
  5
235
102
{ACAD_REACTORS
330
36C
102
}
330
1F
100
AcDbEntity
  8
0
  6
Continuous
 62
     7
100
AcDbLine
 10
-61.0327095258527
 20
116.1729400432742
 30
0.0
 11
-61.0327095258527
 21
116.9229400432742
 31
0.0
  0
LINE
  5
236
102
{ACAD_REACTORS
330
36C
102
}
330
1F
100
AcDbEntity
  8
0
  6
Continuous
 62
     7
100
AcDbLine
 10
-67.0327095258527
 20
116.172940043274
 30
0.0
 11
-67.0327095258527
 21
116.922940043274
 31
0.0
  0
LINE
  5
237
330
1F
100
AcDbEntity
  8
0
  6
Continuous
 62
     7
100
AcDbLine
 10
-70.2827095258527
 20
119.4229400432742
 30
0.0
 11
-57.7827095258527
 21
119.4229400432742
 31
0.0
  0
LINE
  5
238
102
{ACAD_REACTORS
330
36C
102
}
330
1F
100
AcDbEntity
  8
0
  6
Continuous
 62
     7
100
AcDbLine
 10
-67.0327095258527
 20
137.172940043274
 30
0.0
 11
-67.0327095258527
 21
136.422940043274
 31
0.0
  0
LINE
  5
239
102
{ACAD_REACTORS
330
36C
102
}
330
1F
100
AcDbEntity
  8
0
  6
Continuous
 62
     7
100
AcDbLine
 10
-61.0327095258527
 20
137.172940043274
 30
0.0
 11
-67.0327095258527
 21
137.172940043274
 31
0.0
  0
LINE
  5
23A
102
{ACAD_REACTORS
330
36C
102
}
330
1F
100
AcDbEntity
  8
0
  6
Continuous
 62
     7
100
AcDbLine
 10
-61.0327095258527
 20
136.422940043274
 30
0.0
 11
-56.5327095258527
 21
136.422940043274
 31
0.0
  0
LINE
  5
23B
102
{ACAD_REACTORS
330
36C
102
}
330
1F
100
AcDbEntity
  8
0
  6
Continuous
 62
     7
100
AcDbLine
 10
-61.0327095258527
 20
136.422940043274
 30
0.0
 11
-61.0327095258527
 21
137.172940043274
 31
0.0
  0
LINE
  5
23C
330
1F
100
AcDbEntity
  8
0
  6
Continuous
 62
     7
100
AcDbLine
 10
-57.7827095258527
 20
133.9229400432742
 30
0.0
 11
-61.78771509378829
 21
133.9229400432742
 31
0.0
  0
LINE
  5
23D
102
{ACAD_REACTORS
330
36C
102
}
330
1F
100
AcDbEntity
  8
1
  6
Continuous
 62
     7
100
AcDbLine
 10
-72.0327095258527
 20
114.622940043274
 30
0.0
 11
-56.0327095258527
 21
114.622940043274
 31
0.0
  0
LINE
  5
23E
102
{ACAD_REACTORS
330
36C
102
}
330
1F
100
AcDbEntity
  8
1
  6
Continuous
 62
     7
100
AcDbLine
 10
-52.0327095258527
 20
118.622940043274
 30
0.0
 11
-52.0327095258527
 21
134.6229400432741
 31
0.0
  0
LINE
  5
23F
102
{ACAD_REACTORS
330
36C
102
}
330
1F
100
AcDbEntity
  8
1
  6
Continuous
 62
     7
100
AcDbLine
 10
-56.0327095258527
 20
138.6229400432741
 30
0.0
 11
-72.03270952585281
 21
138.6229400432741
 31
0.0
  0
LINE
  5
240
102
{ACAD_REACTORS
330
36C
102
}
330
1F
100
AcDbEntity
  8
1
  6
Continuous
 62
     7
100
AcDbLine
 10
-76.03270952585281
 20
134.6229400432741
 30
0.0
 11
-76.0327095258527
 21
118.622940043274
 31
0.0
  0
LINE
  5
241
330
1F
100
AcDbEntity
  8
1
  6
Continuous
 62
     7
100
AcDbLine
 10
-94.5
 20
12.5
 30
0.0
 11
-2.5
 21
12.5
 31
0.0
  0
LINE
  5
242
330
1F
100
AcDbEntity
  8
1
  6
Continuous
 62
     7
100
AcDbLine
 10
-91.0
 20
10.0
 30
0.0
 11
-91.0
 21
12.5
 31
0.0
  0
LINE
  5
243
330
1F
100
AcDbEntity
  8
1
  6
Continuous
 62
     7
100
AcDbLine
 10
-82.0
 20
10.0
 30
0.0
 11
-82.0
 21
12.5
 31
0.0
  0
LINE
  5
244
330
1F
100
AcDbEntity
  8
1
  6
Continuous
 62
     7
100
AcDbLine
 10
-94.5
 20
15.0
 30
0.0
 11
-2.5
 21
15.0
 31
0.0
  0
LINE
  5
245
330
1F
100
AcDbEntity
  8
1
  6
Continuous
 62
     7
100
AcDbLine
 10
-91.0
 20
12.5
 30
0.0
 11
-91.0
 21
15.0
 31
0.0
  0
LINE
  5
246
330
1F
100
AcDbEntity
  8
1
  6
Continuous
 62
     7
100
AcDbLine
 10
-82.0
 20
12.5
 30
0.0
 11
-82.0
 21
15.0
 31
0.0
  0
LINE
  5
247
330
1F
100
AcDbEntity
  8
1
  6
Continuous
 62
     7
100
AcDbLine
 10
-94.5
 20
17.5
 30
0.0
 11
-2.5
 21
17.5
 31
0.0
  0
LINE
  5
248
330
1F
100
AcDbEntity
  8
1
  6
Continuous
 62
     7
100
AcDbLine
 10
-91.0
 20
15.0
 30
0.0
 11
-91.0
 21
17.5
 31
0.0
  0
LINE
  5
249
330
1F
100
AcDbEntity
  8
1
  6
Continuous
 62
     7
100
AcDbLine
 10
-82.0
 20
15.0
 30
0.0
 11
-82.0
 21
17.5
 31
0.0
  0
LINE
  5
24A
330
1F
100
AcDbEntity
  8
1
  6
Continuous
 62
     7
100
AcDbLine
 10
-94.5
 20
20.0
 30
0.0
 11
-2.5
 21
20.0
 31
0.0
  0
LINE
  5
24B
330
1F
100
AcDbEntity
  8
1
  6
Continuous
 62
     7
100
AcDbLine
 10
-91.0
 20
17.5
 30
0.0
 11
-91.0
 21
20.0
 31
0.0
  0
LINE
  5
24C
330
1F
100
AcDbEntity
  8
1
  6
Continuous
 62
     7
100
AcDbLine
 10
-82.0
 20
17.5
 30
0.0
 11
-82.0
 21
20.0
 31
0.0
  0
LINE
  5
24D
330
1F
100
AcDbEntity
  8
1
  6
Continuous
 62
     7
100
AcDbLine
 10
-94.5
 20
146.0000000000001
 30
0.0
 11
-94.5
 21
2.49999999999994
 31
0.0
  0
LINE
  5
24E
330
1F
100
AcDbEntity
  8
1
  6
Continuous
 62
     7
100
AcDbLine
 10
-2.5
 20
146.0000000000001
 30
0.0
 11
-94.5
 21
146.0000000000001
 31
0.0
  0
LINE
  5
24F
330
1F
100
AcDbEntity
  8
1
  6
Continuous
 62
     7
100
AcDbLine
 10
-2.5
 20
2.49999999999994
 30
0.0
 11
-2.5
 21
146.0000000000001
 31
0.0
  0
LINE
  5
250
330
1F
100
AcDbEntity
  8
1
  6
Continuous
 62
     7
100
AcDbLine
 10
0.0
 20
148.5000000000001
 30
0.0
 11
-105.0000000000001
 21
148.5000000000001
 31
0.0
  0
LINE
  5
251
330
1F
100
AcDbEntity
  8
1
  6
Continuous
 62
     7
100
AcDbLine
 10
-105.0000000000001
 20
148.5000000000001
 30
0.0
 11
-105.0000000000001
 21
0.0
 31
0.0
  0
LINE
  5
252
330
1F
100
AcDbEntity
  8
1
  6
Continuous
 62
     7
100
AcDbLine
 10
-105.0000000000001
 20
0.0
 30
0.0
 11
0.0
 21
0.0
 31
0.0
  0
LINE
  5
253
330
1F
100
AcDbEntity
  8
1
  6
Continuous
 62
     7
100
AcDbLine
 10
0.0
 20
0.0
 30
0.0
 11
0.0
 21
148.5000000000001
 31
0.0
  0
LINE
  5
254
330
1F
100
AcDbEntity
  8
1
  6
Continuous
 62
     7
100
AcDbLine
 10
-105.0000000000001
 20
74.2499999999999
 30
0.0
 11
-97.50000000000006
 21
74.2499999999999
 31
0.0
  0
LINE
  5
255
330
1F
100
AcDbEntity
  8
1
  6
Continuous
 62
     7
100
AcDbLine
 10
-94.5
 20
6.25
 30
0.0
 11
-79.5
 21
6.25
 31
0.0
  0
LINE
  5
256
330
1F
100
AcDbEntity
  8
1
  6
Continuous
 62
     7
100
AcDbLine
 10
-79.5
 20
10.0
 30
0.0
 11
-79.5
 21
2.5
 31
0.0
  0
LINE
  5
257
330
1F
100
AcDbEntity
  8
1
  6
Continuous
 62
     7
100
AcDbLine
 10
-94.5
 20
10.0
 30
0.0
 11
-2.5
 21
10.0
 31
0.0
  0
LINE
  5
258
330
1F
100
AcDbEntity
  8
1
  6
Continuous
 62
     7
100
AcDbLine
 10
-15.82369931125731
 20
10.0
 30
0.0
 11
-15.82369931125731
 21
2.5
 31
0.0
  0
LINE
  5
259
102
{ACAD_REACTORS
330
36E
102
}
330
1F
100
AcDbEntity
  8
1
  6
Continuous
 62
     7
100
AcDbLine
 10
-8.66184965562866
 20
6.25
 30
0.0
 11
-8.66184965562866
 21
7.11602540378442
 31
0.0
  0
LINE
  5
25A
102
{ACAD_REACTORS
330
36E
102
}
330
1F
100
AcDbEntity
  8
1
  6
Continuous
 62
     7
100
AcDbLine
 10
-8.66184965562866
 20
7.11602540378442
 30
0.0
 11
-9.08968087197997
 21
6.375
 31
0.0
  0
LINE
  5
25B
102
{ACAD_REACTORS
330
36E
102
}
330
1F
100
AcDbEntity
  8
1
  6
Continuous
 62
     7
100
AcDbLine
 10
-9.2340184392774
 20
6.375
 30
0.0
 11
-9.66184965562866
 21
7.11602540378442
 31
0.0
  0
LINE
  5
25C
102
{ACAD_REACTORS
330
36E
102
}
330
1F
100
AcDbEntity
  8
1
  6
Continuous
 62
     7
100
AcDbLine
 10
-9.66184965562866
 20
7.11602540378442
 30
0.0
 11
-9.66184965562866
 21
6.25
 31
0.0
  0
LINE
  5
25D
330
1F
100
AcDbEntity
  8
1
  6
Continuous
 62
     7
100
AcDbLine
 10
-13.37006729319944
 20
6.32218213217067
 30
0.0
 11
-9.16184965562866
 21
8.75
 31
0.0
  0
LINE
  5
25E
330
1F
100
AcDbEntity
  8
1
  6
Continuous
 62
     7
100
AcDbLine
 10
-9.16184965562866
 20
8.75
 30
0.0
 11
-4.95363201805793
 21
6.32218213217067
 31
0.0
  0
LINE
  5
25F
330
1F
100
AcDbEntity
  8
1
  6
Continuous
 62
     7
100
AcDbLine
 10
-4.95363201805793
 20
6.17781786782928
 30
0.0
 11
-9.16184965562866
 21
3.75
 31
0.0
  0
LINE
  5
260
330
1F
100
AcDbEntity
  8
1
  6
Continuous
 62
     7
100
AcDbLine
 10
-9.16184965562866
 20
3.75
 30
0.0
 11
-13.37006729319944
 21
6.17781786782928
 31
0.0
  0
LINE
  5
261
102
{ACAD_REACTORS
330
36E
102
}
330
1F
100
AcDbEntity
  8
1
  6
Continuous
 62
     7
100
AcDbLine
 10
-9.99518298896203
 20
6.25
 30
0.0
 11
-9.99518298896203
 21
7.86560865601728
 31
0.0
  0
LINE
  5
262
102
{ACAD_REACTORS
330
36E
102
}
330
1F
100
AcDbEntity
  8
1
  6
Continuous
 62
     7
100
AcDbLine
 10
-9.7479661471503
 20
7.93185020913614
 30
0.0
 11
-9.16184965562866
 21
6.91666666666663
 31
0.0
  0
LINE
  5
263
102
{ACAD_REACTORS
330
36E
102
}
330
1F
100
AcDbEntity
  8
1
  6
Continuous
 62
     7
100
AcDbLine
 10
-9.99518298896203
 20
6.25
 30
0.0
 11
-9.99518298896203
 21
5.42379253631645
 31
0.0
  0
LINE
  5
264
102
{ACAD_REACTORS
330
36E
102
}
330
1F
100
AcDbEntity
  8
1
  6
Continuous
 62
     7
100
AcDbLine
 10
-9.66184965562866
 20
5.42379253631645
 30
0.0
 11
-9.66184965562866
 21
6.25
 31
0.0
  0
LINE
  5
265
102
{ACAD_REACTORS
330
36E
102
}
330
1F
100
AcDbEntity
  8
1
  6
Continuous
 62
     7
100
AcDbLine
 10
-8.66184965562866
 20
6.25
 30
0.0
 11
-8.66184965562866
 21
4.6541345353009
 31
0.0
  0
LINE
  5
266
102
{ACAD_REACTORS
330
36E
102
}
330
1F
100
AcDbEntity
  8
1
  6
Continuous
 62
     7
100
AcDbLine
 10
-8.32851632229534
 20
4.6541345353009
 30
0.0
 11
-8.32851632229534
 21
7.86560865601728
 31
0.0
  0
LINE
  5
267
102
{ACAD_REACTORS
330
36E
102
}
330
1F
100
AcDbEntity
  8
1
  6
Continuous
 62
     7
100
AcDbLine
 10
-8.57573316410702
 20
7.93185020913614
 30
0.0
 11
-9.16184965562866
 21
6.91666666666663
 31
0.0
  0
LINE
  5
268
102
{ACAD_REACTORS
330
36F
102
}
330
1F
100
AcDbEntity
  8
1
  6
Continuous
 62
     7
100
AcDbLine
 10
-10.66184965562866
 20
5.13501057401629
 30
0.0
 11
-10.66184965562866
 21
7.46125008008369
 31
0.0
  0
LINE
  5
269
102
{ACAD_REACTORS
330
36F
102
}
330
1F
100
AcDbEntity
  8
1
  6
Continuous
 62
     7
100
AcDbLine
 10
-10.32851632229534
 20
7.46125008008369
 30
0.0
 11
-10.32851632229534
 21
5.13501057401635
 31
0.0
  0
LINE
  5
26A
102
{ACAD_REACTORS
330
36F
102
}
330
1F
100
AcDbEntity
  8
1
  6
Continuous
 62
     7
100
AcDbLine
 10
-10.32851632229534
 20
5.13501057401635
 30
0.0
 11
-9.24522924671374
 21
4.5100372611808
 31
0.0
  0
LINE
  5
26B
102
{ACAD_REACTORS
330
36F
102
}
330
1F
100
AcDbEntity
  8
1
  6
Continuous
 62
     7
100
AcDbLine
 10
-9.41180339787695
 20
4.2213087324979
 30
0.0
 11
-10.49509047345851
 21
4.84628204533345
 31
0.0
  0
LINE
  5
26C
102
{ACAD_REACTORS
330
36D
102
}
330
1F
100
AcDbEntity
  8
1
  6
Continuous
 62
     7
100
AcDbLine
 10
-10.99518298896203
 20
7.07663469546833
 30
0.0
 11
-10.99518298896203
 21
5.51962595863165
 31
0.0
  0
LINE
  5
26D
102
{ACAD_REACTORS
330
36D
102
}
330
1F
100
AcDbEntity
  8
1
  6
Continuous
 62
     7
100
AcDbLine
 10
-10.99518298896203
 20
5.51962595863165
 30
0.0
 11
-10.99518298896203
 21
5.42336530453161
 31
0.0
  0
LINE
  5
26E
102
{ACAD_REACTORS
330
36D
102
}
330
1F
100
AcDbEntity
  8
1
  6
Continuous
 62
     7
100
AcDbLine
 10
-11.32851632229534
 20
5.42336530453161
 30
0.0
 11
-11.32851632229534
 21
7.07663469546833
 31
0.0
  0
LINE
  5
26F
102
{ACAD_REACTORS
330
370
102
}
330
1F
100
AcDbEntity
  8
1
  6
Continuous
 62
     7
100
AcDbLine
 10
-7.74522924671373
 20
7.60561434442513
 30
0.0
 11
-7.07856258004711
 21
7.22099895980972
 31
0.0
  0
LINE
  5
270
102
{ACAD_REACTORS
330
370
102
}
330
1F
100
AcDbEntity
  8
1
  6
Continuous
 62
     7
100
AcDbLine
 10
-7.24513673121027
 20
6.93227043112688
 30
0.0
 11
-7.66184965562865
 21
7.17268173367597
 31
0.0
  0
LINE
  5
271
102
{ACAD_REACTORS
330
370
102
}
330
1F
100
AcDbEntity
  8
1
  6
Continuous
 62
     7
100
AcDbLine
 10
-7.66184965562865
 20
7.17268173367597
 30
0.0
 11
-7.66184965562865
 21
6.41666666666663
 31
0.0
  0
LINE
  5
272
102
{ACAD_REACTORS
330
370
102
}
330
1F
100
AcDbEntity
  8
1
  6
Continuous
 62
     7
100
AcDbLine
 10
-7.66184965562865
 20
6.41666666666663
 30
0.0
 11
-7.16184965562865
 21
6.41666666666663
 31
0.0
  0
LINE
  5
273
102
{ACAD_REACTORS
330
370
102
}
330
1F
100
AcDbEntity
  8
1
  6
Continuous
 62
     7
100
AcDbLine
 10
-7.16184965562865
 20
6.08333333333332
 30
0.0
 11
-7.66184965562865
 21
6.08333333333332
 31
0.0
  0
LINE
  5
274
102
{ACAD_REACTORS
330
370
102
}
330
1F
100
AcDbEntity
  8
1
  6
Continuous
 62
     7
100
AcDbLine
 10
-7.66184965562865
 20
6.08333333333332
 30
0.0
 11
-7.66184965562865
 21
5.32731826632397
 31
0.0
  0
LINE
  5
275
102
{ACAD_REACTORS
330
370
102
}
330
1F
100
AcDbEntity
  8
1
  6
Continuous
 62
     7
100
AcDbLine
 10
-7.66184965562865
 20
5.32731826632397
 30
0.0
 11
-7.24513673121027
 21
5.56772956887312
 31
0.0
  0
LINE
  5
276
102
{ACAD_REACTORS
330
370
102
}
330
1F
100
AcDbEntity
  8
1
  6
Continuous
 62
     7
100
AcDbLine
 10
-7.07856258004711
 20
5.27900104019017
 30
0.0
 11
-7.74522924671373
 21
4.89438565557487
 31
0.0
  0
LINE
  5
277
102
{ACAD_REACTORS
330
370
102
}
330
1F
100
AcDbEntity
  8
1
  6
Continuous
 62
     7
100
AcDbLine
 10
-7.99518298896197
 20
5.03874991991631
 30
0.0
 11
-7.99518298896197
 21
7.46125008008369
 31
0.0
  0
LINE
  5
278
330
1F
100
AcDbEntity
  8
1
  6
Continuous
 62
     7
100
AcDbLine
 10
-24.5
 20
10.0
 30
0.0
 11
-24.5
 21
2.5
 31
0.0
  0
LINE
  5
279
330
1F
100
AcDbEntity
  8
1
  6
Continuous
 62
     7
100
AcDbLine
 10
-94.5
 20
10.0
 30
0.0
 11
-94.5
 21
2.49999999999994
 31
0.0
  0
LINE
  5
27A
330
1F
100
AcDbEntity
  8
1
  6
Continuous
 62
     7
100
AcDbLine
 10
-94.5
 20
2.49999999999994
 30
0.0
 11
-2.5
 21
2.49999999999994
 31
0.0
  0
LINE
  5
27B
330
1F
100
AcDbEntity
  8
1
  6
Continuous
 62
     7
100
AcDbLine
 10
-12.88270952585231
 20
82.03496439228924
 30
0.0
 11
-12.28270952585203
 21
82.57709475043522
 31
0.0
  0
LINE
  5
27C
330
1F
100
AcDbEntity
  8
1
  6
Continuous
 62
     7
100
AcDbLine
 10
-12.88270952585231
 20
81.65761354466694
 30
0.0
 11
-12.28270952585203
 21
82.09956226185116
 31
0.0
  0
LINE
  5
27D
330
1F
100
AcDbEntity
  8
1
  6
Continuous
 62
     7
100
AcDbLine
 10
-12.88270952585231
 20
81.07947850481234
 30
0.0
 11
-12.28270952585203
 21
81.36794004327402
 31
0.0
  0
LINE
  5
27E
330
1F
100
AcDbEntity
  8
1
  6
Continuous
 62
     7
100
AcDbLine
 10
-12.88270952585231
 20
80.37029089089637
 30
0.0
 11
-12.28270952585203
 21
80.4704725318581
 31
0.0
  0
LINE
  5
27F
330
1F
100
AcDbEntity
  8
1
  6
Continuous
 62
     7
100
AcDbLine
 10
-12.88270952585231
 20
79.61558919565167
 30
0.0
 11
-12.28270952585203
 21
79.51540755468993
 31
0.0
  0
LINE
  5
280
330
1F
100
AcDbEntity
  8
1
  6
Continuous
 62
     7
100
AcDbLine
 10
-12.88270952585231
 20
78.90640158173568
 30
0.0
 11
-12.28270952585203
 21
78.61794004327402
 31
0.0
  0
LINE
  5
281
330
1F
100
AcDbEntity
  8
1
  6
Continuous
 62
     7
100
AcDbLine
 10
-12.88270952585231
 20
78.32826654188102
 30
0.0
 11
-12.28270952585206
 21
77.8863178246968
 31
0.0
  0
LINE
  5
282
330
1F
100
AcDbEntity
  8
1
  6
Continuous
 62
     7
100
AcDbLine
 10
-12.88270952585231
 20
77.95091569425871
 30
0.0
 11
-12.28270952585203
 21
77.40878533611273
 31
0.0
  0
LINE
  5
283
330
1F
100
AcDbEntity
  8
1
  6
Continuous
 62
     7
100
AcDbLine
 10
-12.88270952585231
 20
77.79294004327426
 30
0.0
 11
-12.28270952585203
 21
77.19294004327399
 31
0.0
  0
LINE
  5
284
330
1F
100
AcDbEntity
  8
1
  6
Continuous
 62
     7
100
AcDbLine
 10
-12.28270952585203
 20
82.79294004327396
 30
0.0
 11
-12.88270952585231
 21
82.19294004327371
 31
0.0
  0
LINE
  5
285
330
1F
100
AcDbEntity
  8
1
  6
Continuous
 62
     7
100
AcDbLine
 10
-11.93270952585199
 20
82.79294004327396
 30
0.0
 11
-12.28270952585203
 21
82.79294004327396
 31
0.0
  0
LINE
  5
286
330
1F
100
AcDbEntity
  8
1
  6
Continuous
 62
     7
100
AcDbLine
 10
-12.28270952585203
 20
77.19294004327399
 30
0.0
 11
-11.93270952585199
 21
77.19294004327399
 31
0.0
  0
LINE
  5
287
330
1F
100
AcDbEntity
  8
1
  6
Continuous
 62
     7
100
AcDbLine
 10
-12.28270952585203
 20
82.79294004327396
 30
0.0
 11
-12.28270952585203
 21
77.19294004327399
 31
0.0
  0
LINE
  5
288
330
1F
100
AcDbEntity
  8
1
  6
Continuous
 62
     7
100
AcDbLine
 10
-11.42847095873464
 20
78.35191945499152
 30
0.0
 11
-11.93270952585201
 21
78.35191945499152
 31
0.0
  0
LINE
  5
289
330
1F
100
AcDbEntity
  8
1
  6
Continuous
 62
     7
100
AcDbLine
 10
-11.93270952585201
 20
78.35191945499152
 30
0.0
 11
-11.93270952585201
 21
77.78623403004225
 31
0.0
  0
LINE
  5
28A
330
1F
100
AcDbEntity
  8
1
  6
Continuous
 62
     7
100
AcDbLine
 10
-11.93270952585201
 20
77.78623403004225
 30
0.0
 11
-11.63567557822675
 21
77.78623403004225
 31
0.0
  0
LINE
  5
28B
330
1F
100
AcDbEntity
  8
1
  6
Continuous
 62
     7
100
AcDbLine
 10
-54.23230946032593
 20
4.40253384026496
 30
0.0
 11
-53.2368687156928
 21
4.40253384026496
 31
0.0
  0
LINE
  5
28C
330
1F
100
AcDbEntity
  8
1
  6
Continuous
 62
     7
100
AcDbLine
 10
-53.88102240644185
 20
3.96342502290977
 30
0.0
 11
-52.58764734441387
 21
3.96342502290977
 31
0.0
  0
LINE
  5
28D
330
1F
100
AcDbEntity
  8
1
  6
Continuous
 62
     7
100
AcDbLine
 10
-53.52973535255768
 20
3.52431620555463
 30
0.0
 11
-52.93893439829797
 21
3.52431620555463
 31
0.0
  0
LINE
  5
28E
330
1F
100
AcDbEntity
  8
1
  6
Continuous
 62
     7
100
AcDbLine
 10
-53.2368687156928
 20
5.33809610980424
 30
0.0
 11
-53.2368687156928
 21
4.40253384026496
 31
0.0
  0
LINE
  5
28F
330
1F
100
AcDbEntity
  8
1
  6
Continuous
 62
     7
100
AcDbLine
 10
-53.2368687156928
 20
4.40253384026496
 30
0.0
 11
-52.23636029052972
 21
4.40253384026496
 31
0.0
  0
LINE
  5
290
330
1F
100
AcDbEntity
  8
1
  6
Continuous
 62
     7
100
AcDbLine
 10
-62.39168893757029
 20
27.0229400432736
 30
0.0
 11
-62.39168893757029
 21
26.5187014761562
 31
0.0
  0
LINE
  5
291
330
1F
100
AcDbEntity
  8
1
  6
Continuous
 62
     7
100
AcDbLine
 10
-61.82600351262099
 20
27.0229400432736
 30
0.0
 11
-62.39168893757029
 21
27.0229400432736
 31
0.0
  0
LINE
  5
292
330
1F
100
AcDbEntity
  8
1
  6
Continuous
 62
     7
100
AcDbLine
 10
-61.82600351262099
 20
26.72590609564831
 30
0.0
 11
-61.82600351262099
 21
27.0229400432736
 31
0.0
  0
LINE
  5
293
330
1F
100
AcDbEntity
  8
1
  6
Continuous
 62
     2
100
AcDbLine
 10
-65.53270952585268
 20
28.89720411198562
 30
0.0
 11
-65.28270952585268
 21
29.14720411198562
 31
0.0
  0
LINE
  5
294
330
1F
100
AcDbEntity
  8
1
  6
Continuous
 62
     7
100
AcDbLine
 10
-61.4485548186915
 20
27.37294004327362
 30
0.0
 11
-62.6231705946739
 21
28.67294004327361
 31
0.0
  0
LINE
  5
295
330
1F
100
AcDbEntity
  8
1
  6
Continuous
 62
     7
100
AcDbLine
 10
-66.61686423301398
 20
27.37294004327362
 30
0.0
 11
-65.4422484570315
 21
28.67294004327361
 31
0.0
  0
LINE
  5
296
330
1F
100
AcDbEntity
  8
1
  6
Continuous
 62
     7
100
AcDbLine
 10
-66.13933174442988
 20
27.37294004327362
 30
0.0
 11
-65.1817761905312
 21
28.67294004327361
 31
0.0
  0
LINE
  5
297
330
1F
100
AcDbEntity
  8
1
  6
Continuous
 62
     7
100
AcDbLine
 10
-64.51024201443687
 20
27.37294004327362
 30
0.0
 11
-64.29318179235318
 21
28.67294004327361
 31
0.0
  0
LINE
  5
298
330
1F
100
AcDbEntity
  8
1
  6
Continuous
 62
     7
100
AcDbLine
 10
-62.6577095258528
 20
27.37294004327362
 30
0.0
 11
-63.2827095258528
 21
28.67294004327361
 31
0.0
  0
LINE
  5
299
330
1F
100
AcDbEntity
  8
1
  6
Continuous
 62
     7
100
AcDbLine
 10
-61.92608730727549
 20
27.37294004327362
 30
0.0
 11
-62.88364286117429
 21
28.67294004327361
 31
0.0
  0
LINE
  5
29A
330
1F
100
AcDbEntity
  8
1
  6
Continuous
 62
     2
100
AcDbLine
 10
-62.78270952585269
 20
29.14720411198562
 30
0.0
 11
-62.53270952585269
 21
28.89720411198562
 31
0.0
  0
LINE
  5
29B
102
{ACAD_REACTORS
330
371
102
}
330
1F
100
AcDbEntity
  8
1
  6
Continuous
 62
     7
100
AcDbLine
 10
-61.23270952585268
 20
27.37294004327362
 30
0.0
 11
-61.83270952585297
 21
27.9729400432739
 31
0.0
  0
LINE
  5
29C
330
1F
100
AcDbEntity
  8
1
  6
Continuous
 62
     2
100
AcDbLine
 10
-62.78270952585269
 20
29.14720411198562
 30
0.0
 11
-62.78270952585269
 21
29.77294004327391
 31
0.0
  0
LINE
  5
29D
330
1F
100
AcDbEntity
  8
1
  6
Continuous
 62
     2
100
AcDbLine
 10
-65.28270952585268
 20
29.14720411198562
 30
0.0
 11
-65.28270952585268
 21
29.77294004327391
 31
0.0
  0
LINE
  5
29E
330
1F
100
AcDbEntity
  8
1
  6
Continuous
 62
     2
100
AcDbLine
 10
-65.28270952585268
 20
29.14720411198562
 30
0.0
 11
-62.78270952585269
 21
29.14720411198562
 31
0.0
  0
LINE
  5
29F
330
1F
100
AcDbEntity
  8
1
  6
Continuous
 62
     7
100
AcDbLine
 10
-62.53270952585269
 20
28.7972041119856
 30
0.0
 11
-62.53270952585269
 21
29.77294004327391
 31
0.0
  0
LINE
  5
2A0
330
1F
100
AcDbEntity
  8
1
  6
Continuous
 62
     7
100
AcDbLine
 10
-65.53270952585268
 20
28.7972041119856
 30
0.0
 11
-65.53270952585268
 21
29.77294004327391
 31
0.0
  0
LINE
  5
2A1
102
{ACAD_REACTORS
330
371
102
}
330
1F
100
AcDbEntity
  8
1
  6
Continuous
 62
     7
100
AcDbLine
 10
-61.23270952585268
 20
27.0229400432736
 30
0.0
 11
-61.23270952585268
 21
27.37294004327362
 31
0.0
  0
LINE
  5
2A2
330
1F
100
AcDbEntity
  8
1
  6
Continuous
 62
     7
100
AcDbLine
 10
-63.5551770372687
 20
27.37294004327362
 30
0.0
 11
-63.7722372593523
 21
28.67294004327361
 31
0.0
  0
LINE
  5
2A3
102
{ACAD_REACTORS
330
371
102
}
330
1F
100
AcDbEntity
  8
1
  6
Continuous
 62
     7
100
AcDbLine
 10
-66.83270952585269
 20
27.37294004327362
 30
0.0
 11
-66.83270952585269
 21
27.0229400432736
 31
0.0
  0
LINE
  5
2A4
330
1F
100
AcDbEntity
  8
1
  6
Continuous
 62
     7
100
AcDbLine
 10
-61.23270952585268
 20
27.37294004327362
 30
0.0
 11
-66.83270952585269
 21
27.37294004327362
 31
0.0
  0
LINE
  5
2A5
330
1F
100
AcDbEntity
  8
1
  6
Continuous
 62
     7
100
AcDbLine
 10
-65.62057749149668
 20
28.58507207762961
 30
0.0
 11
-66.2327095258524
 21
27.9729400432739
 31
0.0
  0
LINE
  5
2A6
330
1F
100
AcDbEntity
  8
1
  6
Continuous
 62
     7
100
AcDbLine
 10
-62.50576344219008
 20
28.67294004327361
 30
0.0
 11
-65.55965560951537
 21
28.67294004327361
 31
0.0
  0
LINE
  5
2A7
330
1F
100
AcDbEntity
  8
1
  6
Continuous
 62
     7
100
AcDbLine
 10
-65.4077095258528
 20
27.37294004327362
 30
0.0
 11
-64.7827095258528
 21
28.67294004327361
 31
0.0
  0
LINE
  5
2A8
102
{ACAD_REACTORS
330
371
102
}
330
1F
100
AcDbEntity
  8
1
  6
Continuous
 62
     7
100
AcDbLine
 10
-66.2327095258524
 20
27.9729400432739
 30
0.0
 11
-68.83270952585265
 21
27.9729400432739
 31
0.0
  0
LINE
  5
2A9
330
1F
100
AcDbEntity
  8
1
  6
Continuous
 62
     7
100
AcDbLine
 10
-61.83270952585297
 20
27.9729400432739
 30
0.0
 11
-62.44484156020869
 21
28.58507207762961
 31
0.0
  0
LINE
  5
2AA
102
{ACAD_REACTORS
330
371
102
}
330
1F
100
AcDbEntity
  8
1
  6
Continuous
 62
     7
100
AcDbLine
 10
-66.2327095258524
 20
27.9729400432739
 30
0.0
 11
-66.83270952585269
 21
27.37294004327362
 31
0.0
  0
LINE
  5
2AB
102
{ACAD_REACTORS
330
371
102
}
330
1F
100
AcDbEntity
  8
1
  6
Continuous
 62
     7
100
AcDbLine
 10
-62.54924511216854
 20
26.47294004327387
 30
0.0
 11
-56.0327095258527
 21
26.47294004327387
 31
0.0
  0
ARC
  5
2AC
102
{ACAD_REACTORS
330
362
102
}
330
1F
100
AcDbEntity
  8
1
  6
Continuous
 62
     2
100
AcDbCircle
 10
-64.73270952585263
 20
38.96892086055485
 30
0.0
 40
0.099999999999981
100
AcDbArc
 50
119.9816393688531
 51
299.9816393687543
  0
ARC
  5
2AD
102
{ACAD_REACTORS
330
362
102
}
330
1F
100
AcDbEntity
  8
1
  6
Continuous
 62
     2
100
AcDbCircle
 10
-64.73270952585263
 20
38.47294004327384
 30
0.0
 40
0.1000000000000014
100
AcDbArc
 50
90.0
 51
270.0
  0
ARC
  5
2AE
102
{ACAD_REACTORS
330
362
102
}
330
1F
100
AcDbEntity
  8
1
  6
Continuous
 62
     2
100
AcDbCircle
 10
-64.73270952585263
 20
37.97695922599278
 30
0.0
 40
0.0999999999999758
100
AcDbArc
 50
60.01836063125795
 51
240.0183606311469
  0
ARC
  5
2AF
102
{ACAD_REACTORS
330
365
102
}
330
1F
100
AcDbEntity
  8
1
  6
Continuous
 62
     2
100
AcDbCircle
 10
-62.33270952585265
 20
38.96892086055485
 30
0.0
 40
0.099999999999973
100
AcDbArc
 50
0.0
 51
180.0
  0
ARC
  5
2B0
102
{ACAD_REACTORS
330
365
102
}
330
1F
100
AcDbEntity
  8
1
  6
Continuous
 62
     2
100
AcDbCircle
 10
-62.33270952585265
 20
37.97695922599278
 30
0.0
 40
0.1000000000000227
100
AcDbArc
 50
180.0
 51
0.0
  0
ARC
  5
2B1
102
{ACAD_REACTORS
330
364
102
}
330
1F
100
AcDbEntity
  8
1
  6
Continuous
 62
     2
100
AcDbCircle
 10
-63.43270952585267
 20
39.60353624517018
 30
0.0
 40
0.1000000000000548
100
AcDbArc
 50
60.01836063117128
 51
240.0183606311186
  0
ARC
  5
2B2
102
{ACAD_REACTORS
330
364
102
}
330
1F
100
AcDbEntity
  8
1
  6
Continuous
 62
     2
100
AcDbCircle
 10
-62.73270952585263
 20
37.74618999522358
 30
0.0
 40
0.1000000000000227
100
AcDbArc
 50
180.0
 51
0.0
  0
ARC
  5
2B3
102
{ACAD_REACTORS
330
363
102
}
330
1F
100
AcDbEntity
  8
1
  6
Continuous
 62
     2
100
AcDbCircle
 10
-63.95321966211004
 20
37.50357484966344
 30
0.0
 40
0.0794898637426016
100
AcDbArc
 50
180.0
 51
330.0000000000005
  0
ARC
  5
2B4
102
{ACAD_REACTORS
330
363
102
}
330
1F
100
AcDbEntity
  8
1
  6
Continuous
 62
     2
100
AcDbCircle
 10
-63.93270952585267
 20
39.43045932209328
 30
0.0
 40
0.1000000000000227
100
AcDbArc
 50
0.0
 51
180.0
  0
ARC
  5
2B5
102
{ACAD_REACTORS
330
363
102
}
330
1F
100
AcDbEntity
  8
1
  6
Continuous
 62
     2
100
AcDbCircle
 10
-63.13270952585266
 20
38.96866452148397
 30
0.0
 40
0.1000000000000227
100
AcDbArc
 50
0.0
 51
180.0
  0
ARC
  5
2B6
102
{ACAD_REACTORS
330
363
102
}
330
1F
100
AcDbEntity
  8
1
  6
Continuous
 62
     2
100
AcDbCircle
 10
-63.11219938959523
 20
37.50357484966344
 30
0.0
 40
0.0794898637425875
100
AcDbArc
 50
209.999999999997
 51
0.0
  0
ARC
  5
2B7
330
1F
100
AcDbEntity
  8
0
  6
Continuous
 62
     7
100
AcDbCircle
 10
-54.76727663259756
 20
45.61705259296929
 30
0.0
 40
0.0999999999999797
100
AcDbArc
 50
314.9999999999568
 51
45.00000000005182
  0
ARC
  5
2B8
330
1F
100
AcDbEntity
  8
0
  6
Continuous
 62
     7
100
AcDbCircle
 10
-56.88859697615727
 20
47.7383729365289
 30
0.0
 40
0.1000000000000601
100
AcDbArc
 50
45.00000000000288
 51
134.9999999999568
  0
ARC
  5
2B9
330
1F
100
AcDbEntity
  8
0
  6
Continuous
 62
     7
100
AcDbCircle
 10
-56.95930765427586
 20
43.42502157129099
 30
0.0
 40
0.0999999999999847
100
AcDbArc
 50
224.999999999954
 51
315.0000000000029
  0
ARC
  5
2BA
330
1F
100
AcDbEntity
  8
0
  6
Continuous
 62
     7
100
AcDbCircle
 10
-59.08062799783558
 20
45.54634191485059
 30
0.0
 40
0.1000000000000199
100
AcDbArc
 50
134.9999999999798
 51
224.9999999999741
  0
ARC
  5
2BB
330
1F
100
AcDbEntity
  8
0
  6
Continuous
 62
     7
100
AcDbCircle
 10
-71.17682207554806
 20
47.7383729365289
 30
0.0
 40
0.1000000000000249
100
AcDbArc
 50
45.00000000002303
 51
135.0
  0
ARC
  5
2BC
330
1F
100
AcDbEntity
  8
0
  6
Continuous
 62
     7
100
AcDbCircle
 10
-73.29814241910766
 20
45.61705259296929
 30
0.0
 40
0.1000000000000752
100
AcDbArc
 50
134.9999999999943
 51
224.999999999951
  0
ARC
  5
2BD
330
1F
100
AcDbEntity
  8
0
  6
Continuous
 62
     7
100
AcDbCircle
 10
-68.98479105386981
 20
45.54634191485059
 30
0.0
 40
0.0999999999999797
100
AcDbArc
 50
315.0000000000489
 51
44.99999999999712
  0
ARC
  5
2BE
330
1F
100
AcDbEntity
  8
0
  6
Continuous
 62
     7
100
AcDbCircle
 10
-71.10611139742942
 20
43.42502157129099
 30
0.0
 40
0.1000000000000249
100
AcDbArc
 50
225.000000000023
 51
314.9999999999769
  0
ARC
  5
2BF
330
1F
100
AcDbEntity
  8
0
  6
Continuous
 62
     7
100
AcDbCircle
 10
-57.08315040988772
 20
29.5924141829793
 30
0.0
 40
0.1000000000000844
100
AcDbArc
 50
222.9999999999946
 51
313.000000000016
  0
ARC
  5
2C0
330
1F
100
AcDbEntity
  8
0
  6
Continuous
 62
     7
100
AcDbCircle
 10
-57.00328422122398
 20
33.90560573818619
 30
0.0
 40
0.1000000000000481
100
AcDbArc
 50
43.00000000001403
 51
132.9999999999837
  0
ARC
  5
2C1
330
1F
100
AcDbEntity
  8
0
  6
Continuous
 62
     7
100
AcDbCircle
 10
-59.19734532608148
 20
31.85961065799868
 30
0.0
 40
0.0999999999999669
100
AcDbArc
 50
132.9999999999851
 51
222.9999999999957
  0
ARC
  5
2C2
330
1F
100
AcDbEntity
  8
0
  6
Continuous
 62
     7
100
AcDbCircle
 10
-54.88908930503028
 20
31.63840926316681
 30
0.0
 40
0.1000000000000648
100
AcDbArc
 50
313.0000000000273
 51
42.99999999994566
  0
ARC
  5
2C3
330
1F
100
AcDbEntity
  8
0
  6
Continuous
 62
     7
100
AcDbCircle
 10
-64.84683707007316
 20
35.34796238159081
 30
0.0
 40
0.1000000000000517
100
AcDbArc
 50
311.9999999999824
 51
41.99999999997851
  0
ARC
  5
2C4
330
1F
100
AcDbEntity
  8
0
  6
Continuous
 62
     7
100
AcDbCircle
 10
-67.15058602905306
 20
33.2736575018783
 30
0.0
 40
0.0999999999999936
100
AcDbArc
 50
222.0000000000124
 51
312.0000000000124
  0
ARC
  5
2C5
330
1F
100
AcDbEntity
  8
0
  6
Continuous
 62
     7
100
AcDbCircle
 10
-69.1579778481297
 20
35.5030919783105
 30
0.0
 40
0.0999999999998964
100
AcDbArc
 50
131.9999999999749
 51
222.0000000000342
  0
ARC
  5
2C6
330
1F
100
AcDbEntity
  8
0
  6
Continuous
 62
     7
100
AcDbCircle
 10
-66.85422888914964
 20
37.57739685802302
 30
0.0
 40
0.0999999999998706
100
AcDbArc
 50
41.99999999998276
 51
132.0000000000611
  0
ARC
  5
2C7
102
{ACAD_REACTORS
330
371
102
}
330
1F
100
AcDbEntity
  8
0
  6
Continuous
 62
     7
100
AcDbCircle
 10
-71.5327095258527
 20
30.9729400432739
 30
0.0
 40
3.0
100
AcDbArc
 50
180.0
 51
270.0
  0
ARC
  5
2C8
102
{ACAD_REACTORS
330
371
102
}
330
1F
100
AcDbEntity
  8
0
  6
Continuous
 62
     7
100
AcDbCircle
 10
-56.5327095258527
 20
30.9729400432739
 30
0.0
 40
3.0
100
AcDbArc
 50
270.0
 51
0.0
  0
ARC
  5
2C9
102
{ACAD_REACTORS
330
371
102
}
330
1F
100
AcDbEntity
  8
0
  6
Continuous
 62
     7
100
AcDbCircle
 10
-56.5327095258527
 20
45.9729400432739
 30
0.0
 40
3.0
100
AcDbArc
 50
0.0
 51
90.0
  0
ARC
  5
2CA
102
{ACAD_REACTORS
330
371
102
}
330
1F
100
AcDbEntity
  8
0
  6
Continuous
 62
     7
100
AcDbCircle
 10
-71.5327095258527
 20
45.9729400432739
 30
0.0
 40
3.0
100
AcDbArc
 50
90.0
 51
180.0
  0
ARC
  5
2CB
330
1F
100
AcDbEntity
  8
0
  6
Continuous
 62
     7
100
AcDbCircle
 10
-64.0327095258527
 20
79.99294004327398
 30
0.0
 40
2.80000000000007
100
AcDbArc
 50
53.21321070173713
 51
216.7867892982621
  0
ARC
  5
2CC
330
1F
100
AcDbEntity
  8
0
  6
Continuous
 62
     7
100
AcDbCircle
 10
-64.0327095258527
 20
79.99294004327398
 30
0.0
 40
2.799999999999957
100
AcDbArc
 50
233.2132107017383
 51
36.78678929826159
  0
ARC
  5
2CD
330
1F
100
AcDbEntity
  8
0
  6
Continuous
 62
     7
100
AcDbCircle
 10
-64.0327095258527
 20
79.99294004327398
 30
0.0
 40
2.800000000000059
100
AcDbArc
 50
36.78678929826159
 51
53.21321070173713
  0
ARC
  5
2CE
330
1F
100
AcDbEntity
  8
0
  6
Continuous
 62
     7
100
AcDbCircle
 10
-64.0327095258527
 20
79.99294004327398
 30
0.0
 40
2.799999999999934
100
AcDbArc
 50
216.7867892982621
 51
233.2132107017383
  0
ARC
  5
2CF
330
1F
100
AcDbEntity
  8
0
  6
Continuous
 62
     7
100
AcDbCircle
 10
-57.78270961910319
 20
120.4229399500237
 30
0.0
 40
0.9999999067495126
100
AcDbArc
 50
270.0000053428597
 51
0.00000534284872
  0
ARC
  5
2D0
330
1F
100
AcDbEntity
  8
0
  6
Continuous
 62
     7
100
AcDbCircle
 10
-66.3327095258527
 20
129.1729400432739
 30
0.0
 40
1.500000000000014
100
AcDbArc
 50
270.0
 51
0.0
  0
ARC
  5
2D1
330
1F
100
AcDbEntity
  8
0
  6
Continuous
 62
     7
100
AcDbCircle
 10
-61.73270952585274
 20
124.1729400432739
 30
0.0
 40
1.5
100
AcDbArc
 50
90.0
 51
180.0
  0
ARC
  5
2D2
330
1F
100
AcDbEntity
  8
0
  6
Continuous
 62
     7
100
AcDbCircle
 10
-66.3327095258527
 20
124.1729400432739
 30
0.0
 40
1.5
100
AcDbArc
 50
0.0
 51
90.0
  0
ARC
  5
2D3
330
1F
100
AcDbEntity
  8
0
  6
Continuous
 62
     7
100
AcDbCircle
 10
-61.73270952585274
 20
129.1729400432739
 30
0.0
 40
1.5
100
AcDbArc
 50
180.0
 51
270.0
  0
ARC
  5
2D4
102
{ACAD_REACTORS
330
36C
102
}
330
1F
100
AcDbEntity
  8
0
  6
Continuous
 62
     7
100
AcDbCircle
 10
-71.5327095258527
 20
119.1729400432739
 30
0.0
 40
2.25
100
AcDbArc
 50
179.9999999999975
 51
270.0
  0
ARC
  5
2D5
102
{ACAD_REACTORS
330
36C
102
}
330
1F
100
AcDbEntity
  8
0
  6
Continuous
 62
     7
100
AcDbCircle
 10
-71.5327095258527
 20
134.172940043274
 30
0.0
 40
2.25
100
AcDbArc
 50
90.0
 51
180.0
  0
ARC
  5
2D6
330
1F
100
AcDbEntity
  8
0
  6
Continuous
 62
     7
100
AcDbCircle
 10
-70.2827095258527
 20
132.9229400432742
 30
0.0
 40
1.0
100
AcDbArc
 50
90.0
 51
180.0
  0
ARC
  5
2D7
102
{ACAD_REACTORS
330
36C
102
}
330
1F
100
AcDbEntity
  8
0
  6
Continuous
 62
     7
100
AcDbCircle
 10
-56.5327095258527
 20
119.172940043274
 30
0.0
 40
2.25
100
AcDbArc
 50
270.0
 51
0.0
  0
ARC
  5
2D8
330
1F
100
AcDbEntity
  8
0
  6
Continuous
 62
     7
100
AcDbCircle
 10
-70.2827095258527
 20
120.4229400432739
 30
0.0
 40
1.0
100
AcDbArc
 50
179.9999999999829
 51
270.0
  0
ARC
  5
2D9
102
{ACAD_REACTORS
330
36C
102
}
330
1F
100
AcDbEntity
  8
0
  6
Continuous
 62
     7
100
AcDbCircle
 10
-56.5327095258527
 20
134.172940043274
 30
0.0
 40
2.25
100
AcDbArc
 50
0.0
 51
90.0
  0
ARC
  5
2DA
330
1F
100
AcDbEntity
  8
0
  6
Continuous
 62
     7
100
AcDbCircle
 10
-57.7827095258527
 20
132.9229400432739
 30
0.0
 40
1.0
100
AcDbArc
 50
0.00000000001628
 51
90.0
  0
ARC
  5
2DB
330
1F
100
AcDbEntity
  8
0
  6
Continuous
 62
     7
100
AcDbCircle
 10
-61.78771509378829
 20
133.4229400432739
 30
0.0
 40
0.5000000000002842
100
AcDbArc
 50
90.0
 51
167.4441422013838
  0
ARC
  5
2DC
330
1F
100
AcDbEntity
  8
0
  6
Continuous
 62
     7
100
AcDbCircle
 10
-66.2777039662375
 20
133.4229400499451
 30
0.0
 40
0.5000000066711909
100
AcDbArc
 50
12.55585684516567
 51
89.99999904654605
  0
ARC
  5
2DD
330
1F
100
AcDbEntity
  8
0
  6
Continuous
 62
     7
100
AcDbCircle
 10
-64.0327095258527
 20
133.9229400432739
 30
0.0
 40
1.799999999999997
100
AcDbArc
 50
192.5558577985769
 51
347.4441422014226
  0
ARC
  5
2DE
330
1F
100
AcDbEntity
  8
1
  6
Continuous
 62
     7
100
AcDbCircle
 10
-16.78437619252085
 20
79.99294004327398
 30
0.0
 40
5.601666666668557
100
AcDbArc
 50
330.0098417416594
 51
29.99015825834061
  0
ARC
  5
2DF
102
{ACAD_REACTORS
330
36E
102
}
330
1F
100
AcDbEntity
  8
1
  6
Continuous
 62
     7
100
AcDbCircle
 10
-9.86269988272437
 20
7.86560865601728
 30
0.0
 40
0.1324831062376642
100
AcDbArc
 50
30.00000000001384
 51
180.0
  0
ARC
  5
2E0
102
{ACAD_REACTORS
330
36E
102
}
330
1F
100
AcDbEntity
  8
1
  6
Continuous
 62
     7
100
AcDbCircle
 10
-9.82851632229534
 20
5.42379253631645
 30
0.0
 40
0.1666666666666856
100
AcDbArc
 50
180.0
 51
0.0
  0
ARC
  5
2E1
102
{ACAD_REACTORS
330
36E
102
}
330
1F
100
AcDbEntity
  8
1
  6
Continuous
 62
     7
100
AcDbCircle
 10
-8.49518298896197
 20
4.6541345353009
 30
0.0
 40
0.1666666666666856
100
AcDbArc
 50
180.0
 51
0.0
  0
ARC
  5
2E2
102
{ACAD_REACTORS
330
36E
102
}
330
1F
100
AcDbEntity
  8
1
  6
Continuous
 62
     7
100
AcDbCircle
 10
-8.460999428533
 20
7.86560865601728
 30
0.0
 40
0.1324831062376557
100
AcDbArc
 50
0.0
 51
149.9999999999743
  0
ARC
  5
2E3
102
{ACAD_REACTORS
330
36F
102
}
330
1F
100
AcDbEntity
  8
1
  6
Continuous
 62
     7
100
AcDbCircle
 10
-10.49518298896203
 20
7.46125008008369
 30
0.0
 40
0.1666666666666909
100
AcDbArc
 50
0.0
 51
180.0
  0
ARC
  5
2E4
102
{ACAD_REACTORS
330
36F
102
}
330
1F
100
AcDbEntity
  8
1
  6
Continuous
 62
     7
100
AcDbCircle
 10
-9.32851632229534
 20
4.36567299683935
 30
0.0
 40
0.1666666666666837
100
AcDbArc
 50
240.0183606311504
 51
60.01836063114937
  0
ARC
  5
2E5
102
{ACAD_REACTORS
330
36D
102
}
330
1F
100
AcDbEntity
  8
1
  6
Continuous
 62
     7
100
AcDbCircle
 10
-11.16184965562866
 20
7.07663469546833
 30
0.0
 40
0.1666666666666305
100
AcDbArc
 50
0.0
 51
180.0
  0
ARC
  5
2E6
102
{ACAD_REACTORS
330
36D
102
}
330
1F
100
AcDbEntity
  8
1
  6
Continuous
 62
     7
100
AcDbCircle
 10
-11.16184965562866
 20
5.42336530453161
 30
0.0
 40
0.1666666666666785
100
AcDbArc
 50
180.0
 51
0.0
  0
ARC
  5
2E7
102
{ACAD_REACTORS
330
370
102
}
330
1F
100
AcDbEntity
  8
1
  6
Continuous
 62
     7
100
AcDbCircle
 10
-7.16184965562865
 20
7.07663469546833
 30
0.0
 40
0.1666666666666886
100
AcDbArc
 50
240.0183606311493
 51
60.01836063115717
  0
ARC
  5
2E8
102
{ACAD_REACTORS
330
370
102
}
330
1F
100
AcDbEntity
  8
1
  6
Continuous
 62
     7
100
AcDbCircle
 10
-7.16184965562865
 20
6.25
 30
0.0
 40
0.1666666666666847
100
AcDbArc
 50
270.0
 51
90.0
  0
ARC
  5
2E9
102
{ACAD_REACTORS
330
370
102
}
330
1F
100
AcDbEntity
  8
1
  6
Continuous
 62
     7
100
AcDbCircle
 10
-7.16184965562865
 20
5.42336530453161
 30
0.0
 40
0.1666666666666572
100
AcDbArc
 50
299.9816393688326
 51
119.9816393688413
  0
ARC
  5
2EA
102
{ACAD_REACTORS
330
371
102
}
330
1F
100
AcDbEntity
  8
1
  6
Continuous
 62
     7
100
AcDbCircle
 10
-64.03270952585268
 20
31.87460670994242
 30
0.0
 40
5.601666666668533
100
AcDbArc
 50
285.3565867633152
 51
299.990158258341
  0
ARC
  5
2EB
102
{ACAD_REACTORS
330
371
102
}
330
1F
100
AcDbEntity
  8
1
  6
Continuous
 62
     7
100
AcDbCircle
 10
-64.03270952585268
 20
31.87460670994242
 30
0.0
 40
5.601666666668537
100
AcDbArc
 50
240.0098417416589
 51
254.6434132366848
  0
ARC
  5
2EC
330
1F
100
AcDbEntity
  8
1
  6
Continuous
 62
     7
100
AcDbCircle
 10
-64.03270952585268
 20
31.87460670994242
 30
0.0
 40
5.601666666668534
100
AcDbArc
 50
254.6434132366848
 51
285.3565867633152
  0
CIRCLE
  5
2ED
330
1F
100
AcDbEntity
  8
1
  6
Continuous
 62
     7
100
AcDbCircle
 10
-70.50853261759785
 20
35.37012204236928
 30
0.0
 40
0.850871774353152
  0
CIRCLE
  5
2EE
330
1F
100
AcDbEntity
  8
0
  6
Continuous
 62
     7
100
AcDbCircle
 10
-67.46451147431868
 20
41.90474199173989
 30
0.0
 40
2.099999999999946
  0
CIRCLE
  5
2EF
330
1F
100
AcDbEntity
  8
0
  6
Continuous
 62
     7
100
AcDbCircle
 10
-60.60090757738659
 20
41.90474199173989
 30
0.0
 40
2.099999999999998
  0
CIRCLE
  5
2F0
330
1F
100
AcDbEntity
  8
0
  6
Continuous
 62
     7
100
AcDbCircle
 10
-60.58960878788089
 20
35.55204920900241
 30
0.0
 40
2.100000000000016
  0
CIRCLE
  5
2F1
330
1F
100
AcDbEntity
  8
0
  6
Continuous
 62
     7
100
AcDbCircle
 10
-70.86676055158365
 20
31.94604802688469
 30
0.0
 40
2.100000000000011
  0
CIRCLE
  5
2F2
330
1F
100
AcDbEntity
  8
1
  6
Continuous
 62
     4
100
AcDbCircle
 10
-69.91612113119972
 20
129.1386326615288
 30
0.0
 40
1.000431256747106
  0
CIRCLE
  5
2F3
330
1F
100
AcDbEntity
  8
0
  6
Continuous
 62
     7
100
AcDbCircle
 10
-60.2827095258527
 20
122.9229400432739
 30
0.0
 40
0.950000000000033
  0
CIRCLE
  5
2F4
330
1F
100
AcDbEntity
  8
0
  6
Continuous
 62
     7
100
AcDbCircle
 10
-60.2827095258527
 20
129.9229400432739
 30
0.0
 40
0.950000000000119
  0
CIRCLE
  5
2F5
330
1F
100
AcDbEntity
  8
0
  6
Continuous
 62
     7
100
AcDbCircle
 10
-67.7827095258527
 20
130.4229400432739
 30
0.0
 40
0.9499999999999886
  0
CIRCLE
  5
2F6
330
1F
100
AcDbEntity
  8
0
  6
Continuous
 62
     7
100
AcDbCircle
 10
-67.7827095258527
 20
122.9229400432739
 30
0.0
 40
0.95000000000004
  0
CIRCLE
  5
2F7
330
1F
100
AcDbEntity
  8
1
  6
Continuous
 62
     7
100
AcDbCircle
 10
-53.23433487542783
 20
4.4
 30
0.0
 40
1.247468231122596
  0
SPLINE
  5
2F8
330
1F
100
AcDbEntity
  8
0
  6
Continuous
 62
     7
100
AcDbSpline
210
0.0
220
0.0
230
1.0
 70
     8
 71
     3
 72
     9
 73
     5
 74
     3
 42
0.000000001
 43
0.0000000001
 44
0.00000001
 40
0.0
 40
0.0
 40
0.0
 40
0.0
 40
0.0602281483446731
 40
0.1269463537270872
 40
0.1269463537270872
 40
0.1269463537270872
 40
0.1269463537270872
 10
-60.76199884773412
 20
91.78861961117002
 30
0.0
 10
-60.77039520027201
 20
91.77017700572242
 30
0.0
 10
-60.78809265958823
 20
91.73130445286968
 30
0.0
 10
-60.79018731048415
 20
91.68859277137273
 30
0.0
 10
-60.79128816961539
 20
91.66614512403085
 30
0.0
 11
-60.76199884773412
 21
91.78861961117002
 31
0.0
 11
-60.78367584196143
 21
91.73242763730573
 31
0.0
 11
-60.79128816961539
 21
91.66614512403085
 31
0.0
  0
SPLINE
  5
2F9
330
1F
100
AcDbEntity
  8
0
  6
Continuous
 62
     7
100
AcDbSpline
210
0.0
220
0.0
230
1.0
 70
     8
 71
     3
 72
    11
 73
     7
 74
     5
 42
0.000000001
 43
0.0000000001
 44
0.00000001
 40
0.0
 40
0.0
 40
0.0
 40
0.0
 40
3.125000000014671
 40
6.250000000029313
 40
9.375000000038153
 40
12.50000000004702
 40
12.50000000004702
 40
12.50000000004702
 40
12.50000000004702
 10
-72.2827091528534
 20
132.9229400433212
 30
0.0
 10
-72.28270921057947
 20
131.8812733766496
 30
0.0
 10
-72.28270931103165
 20
129.7979400433065
 30
0.0
 10
-72.2827095716383
 20
126.6729400432938
 30
0.0
 10
-72.28270949753133
 20
123.5479400432831
 30
0.0
 10
-72.28270952141223
 20
121.4646067099438
 30
0.0
 10
-72.2827095258527
 20
120.4229400432742
 30
0.0
 11
-72.2827091528534
 21
132.9229400433212
 31
0.0
 11
-72.28270933935305
 21
129.7979400433065
 31
0.0
 11
-72.2827095258527
 21
126.6729400432919
 31
0.0
 11
-72.2827095258527
 21
123.5479400432831
 31
0.0
 11
-72.2827095258527
 21
120.4229400432742
 31
0.0
  0
SPLINE
  5
2FA
330
1F
100
AcDbEntity
  8
0
  6
Continuous
 62
     7
100
AcDbSpline
210
0.0
220
0.0
230
1.0
 70
     8
 71
     3
 72
    11
 73
     7
 74
     5
 42
0.000000001
 43
0.0000000001
 44
0.00000001
 40
0.0
 40
0.0
 40
0.0
 40
0.0
 40
3.125000000000076
 40
6.25000000000011
 40
9.375000000000195
 40
12.50000000000031
 40
12.50000000000031
 40
12.50000000000031
 40
12.50000000000031
 10
-55.78270989885193
 20
120.4229400432739
 30
0.0
 10
-55.78270984112586
 20
121.4646067099406
 30
0.0
 10
-55.7827097406737
 20
123.5479400432739
 30
0.0
 10
-55.7827094800671
 20
126.672940043274
 30
0.0
 10
-55.78270955417413
 20
129.7979400432741
 30
0.0
 10
-55.78270953029316
 20
131.8812733766075
 30
0.0
 10
-55.7827095258527
 20
132.9229400432742
 30
0.0
 11
-55.78270989885193
 21
120.4229400432739
 31
0.0
 11
-55.78270971235231
 21
123.547940043274
 31
0.0
 11
-55.7827095258527
 21
126.672940043274
 31
0.0
 11
-55.7827095258527
 21
129.7979400432741
 31
0.0
 11
-55.7827095258527
 21
132.9229400432742
 31
0.0
  0
SPLINE
  5
2FB
330
1F
100
AcDbEntity
  8
0
  6
Continuous
 62
     7
100
AcDbSpline
210
0.0
220
0.0
230
1.0
 70
    24
 71
     3
 72
    15
 73
    11
 74
     9
 42
0.000000001
 43
0.0000000001
 44
0.00000001
 40
0.0
 40
0.0
 40
0.0
 40
0.0
 40
0.0230560441157337
 40
0.0461120882314745
 40
0.1449406682098271
 40
0.2928931448770484
 40
0.4814699543462453
 40
0.6998367659256814
 40
0.8481576424841251
 40
0.999999813501816
 40
0.999999813501816
 40
0.999999813501816
 40
0.999999813501816
 10
-56.78270971235374
 20
120.422940043274
 30
0.0
 10
-56.77502436431516
 20
120.422940043274
 30
0.0
 10
-56.759653668238
 20
120.422940043274
 30
0.0
 10
-56.71134011216806
 20
120.4229400432738
 30
0.0
 10
-56.62139441191431
 20
120.4229400432738
 30
0.0
 10
-56.47627512320937
 20
120.4229400432737
 30
0.0
 10
-56.29130975730408
 20
120.4229400432738
 30
0.0
 10
-56.10622159143506
 20
120.4229400432738
 30
0.0
 10
-55.93337830504986
 20
120.4229400432739
 30
0.0
 10
-55.83332395585782
 20
120.4229400432739
 30
0.0
 10
-55.78270989885193
 20
120.4229400432739
 30
0.0
 11
-56.78270971235374
 21
120.422940043274
 31
0.0
 11
-56.75965366823802
 21
120.422940043274
 31
0.0
 11
-56.7365976241223
 21
120.422940043274
 31
0.0
 11
-56.637769044144
 21
120.422940043274
 31
0.0
 11
-56.48981656747681
 21
120.422940043274
 31
0.0
 11
-56.3012397580076
 21
120.422940043274
 31
0.0
 11
-56.08287294642811
 21
120.4229400432739
 31
0.0
 11
-55.93455206986963
 21
120.4229400432739
 31
0.0
 11
-55.78270989885193
 21
120.4229400432739
 31
0.0
  0
SPLINE
  5
2FC
330
1F
100
AcDbEntity
  8
0
  6
Continuous
 62
     7
100
AcDbSpline
210
0.0
220
0.0
230
1.0
 70
     8
 71
     3
 72
    11
 73
     7
 74
     5
 42
0.000000001
 43
0.0000000001
 44
0.00000001
 40
0.0
 40
0.0
 40
0.0
 40
0.0
 40
1.001251391983956
 40
2.002502783967799
 40
3.003754175951713
 40
4.005005567935655
 40
4.005005567935655
 40
4.005005567935655
 40
4.005005567935655
 10
-66.27770395791704
 20
134.9229400833028
 30
0.0
 10
-66.6114544219117
 20
134.9229400771079
 30
0.0
 10
-67.27895534990095
 20
134.922940066866
 30
0.0
 10
-68.28020674188485
 20
134.9229400514819
 30
0.0
 10
-69.28145813386875
 20
134.9229400468517
 30
0.0
 10
-69.94895906185805
 20
134.9229400437507
 30
0.0
 10
-70.2827095258527
 20
134.9229400432742
 30
0.0
 11
-66.27770395791704
 21
134.9229400833028
 31
0.0
 11
-67.27895534990097
 21
134.9229400632885
 31
0.0
 11
-68.28020674188481
 21
134.9229400432742
 31
0.0
 11
-69.28145813386875
 21
134.9229400432742
 31
0.0
 11
-70.2827095258527
 21
134.9229400432742
 31
0.0
  0
SPLINE
  5
2FD
330
1F
100
AcDbEntity
  8
0
  6
Continuous
 62
     7
100
AcDbSpline
210
0.0
220
0.0
230
1.0
 70
    24
 71
     3
 72
    15
 73
    11
 74
     9
 42
0.000000001
 43
0.0000000001
 44
0.00000001
 40
0.0
 40
0.0
 40
0.0
 40
0.0
 40
0.0230560508349242
 40
0.04611210166982
 40
0.1449407088011867
 40
0.2928932188128215
 40
0.4814700683892852
 40
0.6998369152948101
 40
0.848157811013067
 40
1.0
 40
1.0
 40
1.0
 40
1.0
 10
-70.2827095258527
 20
133.9229400432742
 30
0.0
 10
-70.28270952585268
 20
133.9306253935525
 30
0.0
 10
-70.28270952585265
 20
133.9459960941091
 30
0.0
 10
-70.28270952585262
 20
133.9943096637095
 30
0.0
 10
-70.28270952585254
 20
134.0842553863689
 30
0.0
 10
-70.28270952585245
 20
134.2293747086086
 30
0.0
 10
-70.28270952585251
 20
134.4143401107732
 30
0.0
 10
-70.28270952585261
 20
134.5994283081733
 30
0.0
 10
-70.28270952585265
 20
134.7722716187101
 30
0.0
 10
-70.2827095258527
 20
134.8723259802786
 30
0.0
 10
-70.2827095258527
 20
134.9229400432742
 30
0.0
 11
-70.2827095258527
 21
133.9229400432742
 31
0.0
 11
-70.2827095258527
 21
133.9459960941092
 31
0.0
 11
-70.2827095258527
 21
133.9690521449442
 31
0.0
 11
-70.28270952585268
 21
134.0678807520758
 31
0.0
 11
-70.2827095258527
 21
134.2158332620876
 31
0.0
 11
-70.2827095258527
 21
134.404410111664
 31
0.0
 11
-70.2827095258527
 21
134.6227769585692
 31
0.0
 11
-70.2827095258527
 21
134.7710978542873
 31
0.0
 11
-70.2827095258527
 21
134.9229400432742
 31
0.0
  0
SPLINE
  5
2FE
330
1F
100
AcDbEntity
  8
0
  6
Continuous
 62
     7
100
AcDbSpline
210
0.0
220
0.0
230
1.0
 70
    24
 71
     3
 72
    15
 73
    11
 74
     9
 42
0.000000001
 43
0.0000000001
 44
0.00000001
 40
0.0
 40
0.0
 40
0.0
 40
0.0
 40
0.1518421710176483
 40
0.3001630475761914
 40
0.518529859155592
 40
0.7071066686247747
 40
0.8549925905667237
 40
0.953887725270377
 40
0.9769437460733883
 40
0.9999996270007045
 40
0.9999996270007045
 40
0.9999996270007045
 40
0.9999996270007045
 10
-72.2827091528534
 20
132.9229400433212
 30
0.0
 10
-72.23209509584751
 20
132.92294004332
 30
0.0
 10
-72.13204074665546
 20
132.9229400433343
 30
0.0
 10
-71.95919746027026
 20
132.9229400433891
 30
0.0
 10
-71.77410929440123
 20
132.9229400434538
 30
0.0
 10
-71.58916611340439
 20
132.9229400434701
 30
0.0
 10
-71.4440468246994
 20
132.9229400434207
 30
0.0
 10
-71.35410113221661
 20
132.9229400433507
 30
0.0
 10
-71.30576545340523
 20
132.9229400433007
 30
0.0
 10
-71.29039481949513
 20
132.9229400432833
 30
0.0
 10
-71.2827095258527
 20
132.9229400432742
 30
0.0
 11
-72.2827091528534
 21
132.9229400433212
 31
0.0
 11
-72.13086698183577
 21
132.9229400433178
 31
0.0
 11
-71.98254610527722
 21
132.9229400433147
 31
0.0
 11
-71.76417929369782
 21
132.9229400433106
 31
0.0
 11
-71.57560248422864
 21
132.922940043307
 31
0.0
 11
-71.42771656228669
 21
132.9229400433039
 31
0.0
 11
-71.32882142758304
 21
132.9229400433011
 31
0.0
 11
-71.30576540678003
 21
132.9229400432969
 31
0.0
 11
-71.2827095258527
 21
132.9229400432742
 31
0.0
  0
SPLINE
  5
2FF
330
1F
100
AcDbEntity
  8
0
  6
Continuous
 62
     7
100
AcDbSpline
210
0.0
220
0.0
230
1.0
 70
    24
 71
     3
 72
    15
 73
    11
 74
     9
 42
0.000000001
 43
0.0000000001
 44
0.00000001
 40
0.0
 40
0.0
 40
0.0
 40
0.0
 40
0.1518421889867767
 40
0.3001630847049768
 40
0.5185299316101748
 40
0.7071067811865532
 40
0.8550592911983017
 40
0.953887898329981
 40
0.9769439491650331
 40
1.0
 40
1.0
 40
1.0
 40
1.0
 10
-72.2827095258527
 20
120.4229400432742
 30
0.0
 10
-72.2320954628571
 20
120.4229400432742
 30
0.0
 10
-72.13204110128878
 20
120.4229400432743
 30
0.0
 10
-71.95919779075206
 20
120.4229400432743
 30
0.0
 10
-71.77410959335211
 20
120.4229400432742
 30
0.0
 10
-71.5891441911877
 20
120.4229400432743
 30
0.0
 10
-71.44402486894774
 20
120.4229400432742
 30
0.0
 10
-71.3540791462883
 20
120.4229400432742
 30
0.0
 10
-71.30576557668766
 20
120.4229400432742
 30
0.0
 10
-71.29039487613102
 20
120.4229400432742
 30
0.0
 10
-71.2827095258527
 20
120.4229400432742
 30
0.0
 11
-72.2827095258527
 21
120.4229400432742
 31
0.0
 11
-72.13086733686592
 21
120.4229400432742
 31
0.0
 11
-71.9825464411477
 21
120.4229400432742
 31
0.0
 11
-71.7641795942425
 21
120.4229400432742
 31
0.0
 11
-71.57560274466614
 21
120.4229400432742
 31
0.0
 11
-71.4276502346544
 21
120.4229400432742
 31
0.0
 11
-71.32882162752271
 21
120.4229400432742
 31
0.0
 11
-71.30576557668766
 21
120.4229400432742
 31
0.0
 11
-71.2827095258527
 21
120.4229400432742
 31
0.0
  0
SPLINE
  5
300
330
1F
100
AcDbEntity
  8
0
  6
Continuous
 62
     7
100
AcDbSpline
210
0.0
220
0.0
230
1.0
 70
     8
 71
     3
 72
    19
 73
    15
 74
    13
 42
0.000000001
 43
0.0000000001
 44
0.00000001
 40
0.0
 40
0.0
 40
0.0
 40
0.0
 40
0.1097916905514069
 40
0.2195487801066691
 40
0.346792900947237
 40
0.474410335477454
 40
0.9681121501104287
 40
1.46181396545318
 40
1.955515780861316
 40
2.449217595893669
 40
2.683289049890282
 40
2.91698809000687
 40
3.026544564008891
 40
3.136135498655616
 40
3.136135498655616
 40
3.136135498655616
 40
3.136135498655616
 10
-70.2827095258997
 20
118.4229404162734
 30
0.0
 10
-70.31930256732592
 20
118.4237470866107
 30
0.0
 10
-70.39247711737798
 20
118.4253601875502
 30
0.0
 10
-70.50780091842839
 20
118.4343347085761
 30
0.0
 10
-70.62819806117949
 20
118.4516707889803
 30
0.0
 10
-70.87257094025941
 20
118.5024615444436
 30
0.0
 10
-71.22435338710083
 20
118.6352178932982
 30
0.0
 10
-71.63343835134646
 20
118.9203050841358
 30
0.0
 10
-71.96037631876754
 20
119.2968595178446
 30
0.0
 10
-72.14583638789478
 20
119.6644740717919
 30
0.0
 10
-72.23594594213961
 20
119.9726081794964
 30
0.0
 10
-72.26855768028774
 20
120.1627965890787
 30
0.0
 10
-72.28030449501581
 20
120.3133704116865
 30
0.0
 10
-72.28190776966609
 20
120.3864130039771
 30
0.0
 10
-72.2827095258527
 20
120.4229400432742
 30
0.0
 11
-70.2827095258997
 21
118.4229404162734
 31
0.0
 11
-70.39244739293864
 21
118.4263778820789
 31
0.0
 11
-70.50186659808932
 21
118.4349834869362
 31
0.0
 11
-70.62783692218042
 21
118.452942995801
 31
0.0
 11
-70.75277322764977
 21
118.4789647048854
 31
0.0
 11
-71.21465424186903
 21
118.6533419181422
 31
0.0
 11
-71.61974719207306
 21
118.9355496173541
 31
0.0
 11
-71.94336674742642
 21
119.3083925698051
 31
0.0
 11
-72.16579413227281
 21
119.7491504877939
 31
0.0
 11
-72.23161980327085
 21
119.9737755689197
 31
0.0
 11
-72.27070978656202
 21
120.2041821991709
 31
0.0
 11
-72.2792835822222
 21
120.3134026698129
 31
0.0
 11
-72.2827095258527
 21
120.4229400432742
 31
0.0
  0
SPLINE
  5
301
330
1F
100
AcDbEntity
  8
0
  6
Continuous
 62
     7
100
AcDbSpline
210
0.0
220
0.0
230
1.0
 70
     8
 71
     3
 72
    19
 73
    15
 74
    13
 42
0.000000001
 43
0.0000000001
 44
0.00000001
 40
0.0
 40
0.0
 40
0.0
 40
0.0
 40
0.1097916905513932
 40
0.2195487801066389
 40
0.3467929009271561
 40
0.4744103354371988
 40
0.9681121500702329
 40
1.461813965412967
 40
1.955515780821114
 40
2.449217595853471
 40
2.68328904987023
 40
2.916988090006847
 40
3.026544564008867
 40
3.136135498655533
 40
3.136135498655533
 40
3.136135498655533
 40
3.136135498655533
 10
-72.2827091528534
 20
132.9229400433212
 30
0.0
 10
-72.28190248251613
 20
132.9595330847474
 30
0.0
 10
-72.28028938157658
 20
133.0327076347994
 30
0.0
 10
-72.27131486055129
 20
133.1480314358433
 30
0.0
 10
-72.25397878014967
 20
133.268428578581
 30
0.0
 10
-72.20318802469278
 20
133.5128014576487
 30
0.0
 10
-72.07043167584757
 20
133.8645839044864
 30
0.0
 10
-71.78534448501821
 20
134.2736688687377
 30
0.0
 10
-71.40879005131609
 20
134.6006068361665
 30
0.0
 10
-71.04117549736625
 20
134.7860669053039
 30
0.0
 10
-70.73304138965028
 20
134.8761764595573
 30
0.0
 10
-70.54285298005479
 20
134.9087881977088
 30
0.0
 10
-70.39227915744033
 20
134.9205350124374
 30
0.0
 10
-70.31923656514985
 20
134.9221382870876
 30
0.0
 10
-70.2827095258527
 20
134.9229400432742
 30
0.0
 11
-72.2827091528534
 21
132.9229400433212
 31
0.0
 11
-72.27927168704794
 21
133.0326779103601
 31
0.0
 11
-72.27066608219057
 21
133.1420971155108
 31
0.0
 11
-72.25270657332936
 21
133.2680674395821
 31
0.0
 11
-72.22668486425096
 21
133.3930037450321
 31
0.0
 11
-72.05230765100339
 21
133.854884759255
 31
0.0
 11
-71.77009995179965
 21
134.2599777094646
 31
0.0
 11
-71.39725699935515
 21
134.5835972648255
 31
0.0
 11
-70.95649908137077
 21
134.8060246496807
 31
0.0
 11
-70.7318740002267
 21
134.8718503206878
 31
0.0
 11
-70.50146736995592
 21
134.9109403039836
 31
0.0
 11
-70.39224689931389
 21
134.9195140996437
 31
0.0
 11
-70.2827095258527
 21
134.9229400432742
 31
0.0
  0
SPLINE
  5
302
330
1F
100
AcDbEntity
  8
0
  6
Continuous
 62
     7
100
AcDbSpline
210
0.0
220
0.0
230
1.0
 70
     8
 71
     3
 72
    11
 73
     7
 74
     5
 42
0.000000001
 43
0.0000000001
 44
0.00000001
 40
0.0
 40
0.0
 40
0.0
 40
0.0
 40
3.125000000014643
 40
6.250000000029285
 40
9.375000000038096
 40
12.50000000004701
 40
12.50000000004701
 40
12.50000000004701
 40
12.50000000004701
 10
-70.2827095258997
 20
118.4229404162734
 30
0.0
 10
-69.24104285922817
 20
118.4229403585474
 30
0.0
 10
-67.15770952588505
 20
118.4229402580952
 30
0.0
 10
-64.03270952587239
 20
118.4229399974886
 30
0.0
 10
-60.90770952586158
 20
118.4229400715956
 30
0.0
 10
-58.82437619252236
 20
118.4229400477147
 30
0.0
 10
-57.7827095258527
 20
118.4229400432742
 30
0.0
 11
-70.2827095258997
 21
118.4229404162734
 31
0.0
 11
-67.15770952588507
 21
118.4229402297738
 31
0.0
 11
-64.03270952587043
 21
118.4229400432742
 31
0.0
 11
-60.90770952586161
 21
118.4229400432742
 31
0.0
 11
-57.7827095258527
 21
118.4229400432742
 31
0.0
  0
SPLINE
  5
303
330
1F
100
AcDbEntity
  8
0
  6
Continuous
 62
     7
100
AcDbSpline
210
0.0
220
0.0
230
1.0
 70
    24
 71
     3
 72
    15
 73
    11
 74
     9
 42
0.000000001
 43
0.0000000001
 44
0.00000001
 40
0.0
 40
0.0
 40
0.0
 40
0.0
 40
0.0230560508349811
 40
0.0461121016699906
 40
0.1449407088014851
 40
0.2928932188130915
 40
0.4814700683893989
 40
0.6998369152947106
 40
0.8481578110130386
 40
1.0
 40
1.0
 40
1.0
 40
1.0
 10
-57.7827095258527
 20
119.4229400432742
 30
0.0
 10
-57.78270952585272
 20
119.4152546929959
 30
0.0
 10
-57.78270952585273
 20
119.3998839924392
 30
0.0
 10
-57.7827095258528
 20
119.3515704228387
 30
0.0
 10
-57.78270952585288
 20
119.2616247001793
 30
0.0
 10
-57.78270952585294
 20
119.1165053779395
 30
0.0
 10
-57.7827095258529
 20
118.9315399757751
 30
0.0
 10
-57.78270952585281
 20
118.7464517783752
 30
0.0
 10
-57.78270952585272
 20
118.5736084678383
 30
0.0
 10
-57.7827095258527
 20
118.4735541062699
 30
0.0
 10
-57.7827095258527
 20
118.4229400432742
 30
0.0
 11
-57.7827095258527
 21
119.4229400432742
 31
0.0
 11
-57.7827095258527
 21
119.3998839924392
 31
0.0
 11
-57.7827095258527
 21
119.3768279416041
 31
0.0
 11
-57.7827095258527
 21
119.2779993344725
 31
0.0
 11
-57.7827095258527
 21
119.1300468244607
 31
0.0
 11
-57.78270952585269
 21
118.9414699748844
 31
0.0
 11
-57.7827095258527
 21
118.7231031279792
 31
0.0
 11
-57.7827095258527
 21
118.574782232261
 31
0.0
 11
-57.7827095258527
 21
118.4229400432742
 31
0.0
  0
SPLINE
  5
304
330
1F
100
AcDbEntity
  8
0
  6
Continuous
 62
     7
100
AcDbSpline
210
0.0
220
0.0
230
1.0
 70
    24
 71
     3
 72
    15
 73
    11
 74
     9
 42
0.000000001
 43
0.0000000001
 44
0.00000001
 40
0.0
 40
0.0
 40
0.0
 40
0.0
 40
0.1518421710175915
 40
0.3001630475758219
 40
0.5185298591549525
 40
0.7071066686240783
 40
0.8515124526490752
 40
0.9538877252701639
 40
0.976943746073303
 40
0.9999996270007898
 40
0.9999996270007898
 40
0.9999996270007898
 40
0.9999996270007898
 10
-70.2827095258997
 20
118.4229404162734
 30
0.0
 10
-70.28270952589855
 20
118.4735544732793
 30
0.0
 10
-70.28270952591282
 20
118.5736088224712
 30
0.0
 10
-70.28270952596768
 20
118.7464521088562
 30
0.0
 10
-70.28270952603222
 20
118.931540274725
 30
0.0
 10
-70.28270952604825
 20
119.1153234097494
 30
0.0
 10
-70.28270952599945
 20
119.2604426984545
 30
0.0
 10
-70.28270952593029
 20
119.3503883909375
 30
0.0
 10
-70.2827095258792
 20
119.3998841157215
 30
0.0
 10
-70.28270952586179
 20
119.4152547496317
 30
0.0
 10
-70.2827095258527
 20
119.4229400432742
 30
0.0
 11
-70.2827095258997
 21
118.4229404162734
 31
0.0
 11
-70.28270952589634
 21
118.5747825872911
 31
0.0
 11
-70.28270952589334
 21
118.7231034638496
 31
0.0
 11
-70.28270952588908
 21
118.9414702754291
 31
0.0
 11
-70.2827095258855
 21
119.1300470848983
 31
0.0
 11
-70.28270952588255
 21
119.2744528689231
 31
0.0
 11
-70.2827095258797
 21
119.3768281415438
 31
0.0
 11
-70.28270952587545
 21
119.3998841623468
 31
0.0
 11
-70.2827095258527
 21
119.4229400432742
 31
0.0
  0
SPLINE
  5
305
330
1F
100
AcDbEntity
  8
0
  6
Continuous
 62
     7
100
AcDbSpline
210
0.0
220
0.0
230
1.0
 70
     8
 71
     3
 72
    19
 73
    15
 74
    13
 42
0.000000001
 43
0.0000000001
 44
0.00000001
 40
0.0
 40
0.0
 40
0.0
 40
0.0
 40
0.1095909346350724
 40
0.2191474086255458
 40
0.4528464487687264
 40
0.6869179027920052
 40
1.180619717824366
 40
1.674321533232466
 40
2.16802334857523
 40
2.661725163208244
 40
2.789342597746581
 40
2.916586718595151
 40
3.026343808150568
 40
3.136135498702224
 40
3.136135498702224
 40
3.136135498702224
 40
3.136135498702224
 10
-57.7827095258527
 20
118.4229400432742
 30
0.0
 10
-57.74618248655941
 20
118.4237417994604
 30
0.0
 10
-57.67313989427662
 20
118.42534507411
 30
0.0
 10
-57.52256607166765
 20
118.4370918888377
 30
0.0
 10
-57.33237766207127
 20
118.4697036269869
 30
0.0
 10
-57.02424355435046
 20
118.5598131812396
 30
0.0
 10
-56.65662900039783
 20
118.7452732503763
 30
0.0
 10
-56.28007456669396
 20
119.072211217803
 30
0.0
 10
-55.99498737586259
 20
119.481296182053
 30
0.0
 10
-55.86223102701244
 20
119.833078628899
 30
0.0
 10
-55.81144027155209
 20
120.0774515079851
 30
0.0
 10
-55.79410419114964
 20
120.1978486507419
 30
0.0
 10
-55.78512967012625
 20
120.3131724517953
 30
0.0
 10
-55.78351656918839
 20
120.3863470018476
 30
0.0
 10
-55.78270989885193
 20
120.4229400432739
 30
0.0
 11
-57.7827095258527
 21
118.4229400432742
 31
0.0
 11
-57.67317215240307
 21
118.4263659869036
 31
0.0
 11
-57.5639516817725
 21
118.4349397825622
 31
0.0
 11
-57.33354505149487
 21
118.4740297658568
 31
0.0
 11
-57.10891997034409
 21
118.5398554368642
 31
0.0
 11
-56.66816205235863
 21
118.7622828217172
 31
0.0
 11
-56.2953190999125
 21
119.0859023770762
 31
0.0
 11
-56.01311140070675
 21
119.4909953272845
 31
0.0
 11
-55.83873418745694
 21
119.9528763415065
 31
0.0
 11
-55.81271247837296
 21
120.0778126469842
 31
0.0
 11
-55.79475296950976
 21
120.2037829710836
 31
0.0
 11
-55.78614736465492
 21
120.3132021762346
 31
0.0
 11
-55.78270989885193
 21
120.4229400432739
 31
0.0
  0
SPLINE
  5
306
330
1F
100
AcDbEntity
  8
0
  6
Continuous
 62
     7
100
AcDbSpline
210
0.0
220
0.0
230
1.0
 70
     8
 71
     3
 72
    19
 73
    15
 74
    13
 42
0.000000001
 43
0.0000000001
 44
0.00000001
 40
0.0
 40
0.0
 40
0.0
 40
0.0
 40
0.1095909346468572
 40
0.2191474086490858
 40
0.4528464487750742
 40
0.6869179027811672
 40
1.180619717813544
 40
1.674321533221708
 40
2.168023348564456
 40
2.661725163197449
 40
2.789342597741259
 40
2.9165867185953
 40
3.026343808150651
 40
3.136135498702251
 40
3.136135498702251
 40
3.136135498702251
 40
3.136135498702251
 10
-55.7827095258527
 20
132.9229400432742
 30
0.0
 10
-55.78351128203914
 20
132.9594670825714
 30
0.0
 10
-55.78511455668908
 20
133.032509674862
 30
0.0
 10
-55.79686137141817
 20
133.1830834974731
 30
0.0
 10
-55.82947310956752
 20
133.3732719070617
 30
0.0
 10
-55.91958266381653
 20
133.6814060147715
 30
0.0
 10
-56.10504273294875
 20
134.0490205687199
 30
0.0
 10
-56.43198070037347
 20
134.4255750024256
 30
0.0
 10
-56.84106566462186
 20
134.7106621932592
 30
0.0
 10
-57.19284811146885
 20
134.8434185421119
 30
0.0
 10
-57.4372209905583
 20
134.894209297574
 30
0.0
 10
-57.55761813331874
 20
134.9115453779772
 30
0.0
 10
-57.6729419343739
 20
134.9205198990006
 30
0.0
 10
-57.74611648442613
 20
134.9221329999386
 30
0.0
 10
-57.78270952585241
 20
134.922939670275
 30
0.0
 11
-55.7827095258527
 21
132.9229400432742
 31
0.0
 11
-55.78613546948286
 21
133.0324774167356
 31
0.0
 11
-55.79470926514336
 21
133.1416978873778
 31
0.0
 11
-55.83379924843671
 21
133.3721045176382
 31
0.0
 11
-55.89962491943906
 21
133.5967295987726
 31
0.0
 11
-56.12205230428975
 21
134.0374875167592
 31
0.0
 11
-56.44567185964671
 21
134.4103304692072
 31
0.0
 11
-56.85076480985347
 21
134.6925381684151
 31
0.0
 11
-57.31264582407445
 21
134.8669153816675
 31
0.0
 11
-57.43758212955744
 21
134.892937090753
 31
0.0
 11
-57.56355245366223
 21
134.9108965996172
 31
0.0
 11
-57.67297165881321
 21
134.919502204472
 31
0.0
 11
-57.78270952585241
 21
134.922939670275
 31
0.0
  0
SPLINE
  5
307
330
1F
100
AcDbEntity
  8
0
  6
Continuous
 62
     7
100
AcDbSpline
210
0.0
220
0.0
230
1.0
 70
     8
 71
     3
 72
    11
 73
     7
 74
     5
 42
0.000000001
 43
0.0000000001
 44
0.00000001
 40
0.0
 40
0.0
 40
0.0
 40
0.0
 40
1.001251391983965
 40
2.002502783967924
 40
3.003754175951916
 40
4.005005567935915
 40
4.005005567935915
 40
4.005005567935915
 40
4.005005567935915
 10
-57.78270952585241
 20
134.922939670275
 30
0.0
 10
-58.11645998984707
 20
134.922939728001
 30
0.0
 10
-58.78396091783635
 20
134.9229398284532
 30
0.0
 10
-59.78521230982031
 20
134.9229400890598
 30
0.0
 10
-60.78646370180429
 20
134.9229400149528
 30
0.0
 10
-61.45396462979362
 20
134.9229400388337
 30
0.0
 10
-61.78771509378829
 20
134.9229400432742
 30
0.0
 11
-57.78270952585241
 21
134.922939670275
 31
0.0
 11
-58.78396091783635
 21
134.9229398567746
 31
0.0
 11
-59.7852123098203
 21
134.9229400432742
 31
0.0
 11
-60.78646370180429
 21
134.9229400432742
 31
0.0
 11
-61.78771509378829
 21
134.9229400432742
 31
0.0
  0
SPLINE
  5
308
330
1F
100
AcDbEntity
  8
0
  6
Continuous
 62
     7
100
AcDbSpline
210
0.0
220
0.0
230
1.0
 70
    24
 71
     3
 72
    15
 73
    11
 74
     9
 42
0.000000001
 43
0.0000000001
 44
0.00000001
 40
0.0
 40
0.0
 40
0.0
 40
0.0
 40
0.0230558809271884
 40
0.0461119017301996
 40
0.1449404817083462
 40
0.2928929583752904
 40
0.4814697678446294
 40
0.6998365794242147
 40
0.8481574559829141
 40
0.9999996270008182
 40
0.9999996270008182
 40
0.9999996270008182
 40
0.9999996270008182
 10
-57.7827095258527
 20
133.9229400432742
 30
0.0
 10
-57.78270952585266
 20
133.9306253369166
 30
0.0
 10
-57.7827095258526
 20
133.9459959708267
 30
0.0
 10
-57.78270952585238
 20
133.9943094647294
 30
0.0
 10
-57.78270952585204
 20
134.0842551572122
 30
0.0
 10
-57.78270952585182
 20
134.2293744459169
 30
0.0
 10
-57.78270952585181
 20
134.4143398118222
 30
0.0
 10
-57.78270952585207
 20
134.5994279776914
 30
0.0
 10
-57.78270952585232
 20
134.7722712640769
 30
0.0
 10
-57.7827095258524
 20
134.872325613269
 30
0.0
 10
-57.78270952585241
 20
134.922939670275
 30
0.0
 11
-57.7827095258527
 21
133.9229400432742
 31
0.0
 11
-57.78270952585264
 21
133.9459959242015
 31
0.0
 11
-57.78270952585264
 21
133.9690519450045
 31
0.0
 11
-57.78270952585262
 21
134.0678805249829
 31
0.0
 11
-57.78270952585253
 21
134.21583300165
 31
0.0
 11
-57.78270952585251
 21
134.4044098111193
 31
0.0
 11
-57.78270952585241
 21
134.6227766226987
 31
0.0
 11
-57.78270952585241
 21
134.7710974992572
 31
0.0
 11
-57.78270952585241
 21
134.922939670275
 31
0.0
  0
SPLINE
  5
309
330
1F
100
AcDbEntity
  8
0
  6
Continuous
 62
     7
100
AcDbSpline
210
0.0
220
0.0
230
1.0
 70
     8
 71
     3
 72
    23
 73
    19
 74
    17
 42
0.000000001
 43
0.0000000001
 44
0.00000001
 40
0.0
 40
0.0
 40
0.0
 40
0.0
 40
0.0536954418888943
 40
0.1073514000196311
 40
0.2584502961522502
 40
0.4099592785111493
 40
0.6074400041351244
 40
0.8049207299424612
 40
0.9421985120089739
 40
1.079476294086829
 40
1.276957019971179
 40
1.474437745827698
 40
1.671918471580443
 40
1.869399196964713
 40
1.960422383249211
 40
2.051103141837222
 40
2.104856301744829
 40
2.158641834511323
 40
2.158641834511323
 40
2.158641834511323
 40
2.158641834511323
 10
-63.2518419363799
 20
133.7490270084979
 30
0.0
 10
-63.25630693281632
 20
133.7316921908334
 30
0.0
 10
-63.26523365531312
 20
133.6970353057259
 30
0.0
 10
-63.29134126594535
 20
133.6148739401039
 30
0.0
 10
-63.3437327082728
 20
133.5073213743547
 30
0.0
 10
-63.44325265483582
 20
133.3725305443569
 30
0.0
 10
-63.58232155221515
 20
133.2518532773959
 30
0.0
 10
-63.74239697653281
 20
133.1711014244606
 30
0.0
 10
-63.89526619884746
 20
133.1308405249075
 30
0.0
 10
-64.05275516802314
 20
133.1172475543571
 30
0.0
 10
-64.23071122764736
 20
133.139350018671
 30
0.0
 10
-64.41661057736174
 20
133.2117385601908
 30
0.0
 10
-64.57910360848128
 20
133.3274042416764
 30
0.0
 10
-64.68522722811335
 20
133.4522218457319
 30
0.0
 10
-64.74846208005974
 20
133.561885465901
 30
0.0
 10
-64.78007938548316
 20
133.6339474877142
 30
0.0
 10
-64.80033416891472
 20
133.6969000263492
 30
0.0
 10
-64.80916194437405
 20
133.7316478540739
 30
0.0
 10
-64.81357715439681
 20
133.7490269997959
 30
0.0
 11
-63.2518419363799
 21
133.7490270084979
 31
0.0
 11
-63.26571665472709
 21
133.6971551170608
 31
0.0
 11
-63.28214534000916
 21
133.6460761559467
 31
0.0
 11
-63.34759161906122
 21
133.509886355599
 31
0.0
 11
-63.43775335547962
 21
133.3881249767917
 31
0.0
 11
-63.58689053645877
 21
133.2586771546489
 31
0.0
 11
-63.76319370365347
 21
133.1697062007087
 31
0.0
 11
-63.89593795651948
 21
133.1347183038018
 31
0.0
 11
-64.0327095258527
 21
133.1229400432742
 31
0.0
 11
-64.22868026571099
 21
133.147314343837
 31
0.0
 11
-64.41270952585585
 21
133.2189514070027
 31
0.0
 11
-64.57358320046418
 21
133.3334865467019
 31
0.0
 11
-64.70149873031335
 21
133.4839400432758
 31
0.0
 11
-64.74703796957574
 21
133.5627524680343
 31
0.0
 11
-64.78321068929613
 21
133.6459061488255
 31
0.0
 11
-64.79979096405395
 21
133.6970382994984
 31
0.0
 11
-64.81357715439681
 21
133.7490269997959
 31
0.0
  0
SPLINE
  5
30A
330
1F
100
AcDbEntity
  8
0
  6
Continuous
 62
     7
100
AcDbSpline
210
0.0
220
0.0
230
1.0
 70
    24
 71
     3
 72
    15
 73
    11
 74
     9
 42
0.000000001
 43
0.0000000001
 44
0.00000001
 40
0.0
 40
0.0
 40
0.0
 40
0.0
 40
0.1518421915581655
 40
0.3001630900180152
 40
0.5185299419782368
 40
0.7071067972936613
 40
0.8550593120766391
 40
0.9538879230935322
 40
0.9769439765577783
 40
1.000000040028656
 40
1.000000040028656
 40
1.000000040028656
 40
1.000000040028656
 10
-63.2518419363799
 20
133.7490270084979
 30
0.0
 10
-63.20243833136531
 20
133.7380239511386
 30
0.0
 10
-63.10477681458252
 20
133.7162730025865
 30
0.0
 10
-62.93606712869849
 20
133.6786983691096
 30
0.0
 10
-62.75540539707561
 20
133.6384618034764
 30
0.0
 10
-62.57486352332263
 20
133.5982519323127
 30
0.0
 10
-62.43321479237218
 20
133.5667042525217
 30
0.0
 10
-62.34542015976159
 20
133.5471508337348
 30
0.0
 10
-62.29826202538026
 20
133.536647882434
 30
0.0
 10
-62.28325891729759
 20
133.5333064246851
 30
0.0
 10
-62.27575736162841
 20
133.5316356954481
 30
0.0
 11
-63.2518419363799
 21
133.7490270084979
 31
0.0
 11
-63.10363112133627
 21
133.71601783642
 31
0.0
 11
-62.95885738603154
 21
133.6837741628418
 31
0.0
 11
-62.74571287872813
 21
133.6363031080679
 31
0.0
 11
-62.56164592646759
 21
133.595308139521
 31
0.0
 11
-62.41723176477284
 21
133.5631445493507
 31
0.0
 11
-62.32076668587634
 21
133.5416600686949
 31
0.0
 11
-62.29826202863605
 21
133.5366478831592
 31
0.0
 11
-62.27575736162841
 21
133.5316356954481
 31
0.0
  0
SPLINE
  5
30B
330
1F
100
AcDbEntity
  8
0
  6
Continuous
 62
     7
100
AcDbSpline
210
0.0
220
0.0
230
1.0
 70
    24
 71
     3
 72
    15
 73
    11
 74
     9
 42
0.000000001
 43
0.0000000001
 44
0.00000001
 40
0.0
 40
0.0
 40
0.0
 40
0.0
 40
0.0230560517964591
 40
0.0461121035930034
 40
0.1449407146100725
 40
0.292893229393286
 40
0.4814700847086044
 40
0.6998369366686461
 40
0.848157835128319
 40
1.000000026686394
 40
1.000000026686394
 40
1.000000026686394
 40
1.000000026686394
 10
-66.27770395791704
 20
133.9229400566164
 30
0.0
 10
-66.27770395791703
 20
133.9306254072152
 30
0.0
 10
-66.27770395791704
 20
133.9459961084129
 30
0.0
 10
-66.27770395791694
 20
133.9943096799495
 30
0.0
 10
-66.27770395791694
 20
134.0842554058152
 30
0.0
 10
-66.27770395791688
 20
134.2293747328537
 30
0.0
 10
-66.27770395791688
 20
134.4143401402065
 30
0.0
 10
-66.277703957917
 20
134.5994283421183
 30
0.0
 10
-66.27770395791701
 20
134.7722716561108
 30
0.0
 10
-66.27770395791704
 20
134.8723260194501
 30
0.0
 10
-66.27770395791704
 20
134.9229400833028
 30
0.0
 11
-66.27770395791704
 21
133.9229400566164
 31
0.0
 11
-66.27770395791704
 21
133.9459961084129
 31
0.0
 11
-66.27770395791704
 21
133.9690521602094
 31
0.0
 11
-66.27770395791703
 21
134.0678807712264
 31
0.0
 11
-66.27770395791704
 21
134.2158332860096
 31
0.0
 11
-66.27770395791704
 21
134.4044101413249
 31
0.0
 11
-66.27770395791704
 21
134.622776993285
 31
0.0
 11
-66.27770395791704
 21
134.7710978917447
 31
0.0
 11
-66.27770395791704
 21
134.9229400833028
 31
0.0
  0
SPLINE
  5
30C
330
1F
100
AcDbEntity
  8
0
  6
Continuous
 62
     7
100
AcDbSpline
210
0.0
220
0.0
230
1.0
 70
     8
 71
     3
 72
    17
 73
    13
 74
    11
 42
0.000000001
 43
0.0000000001
 44
0.00000001
 40
0.0
 40
0.0
 40
0.0
 40
0.0
 40
0.1158551062647227
 40
0.2316627992483285
 40
0.3733194117318399
 40
0.5152335058154107
 40
0.8855098663866923
 40
1.25578622718861
 40
1.524877058377062
 40
1.793158863886795
 40
1.908851119630272
 40
2.024590712057879
 40
2.024590712057879
 40
2.024590712057879
 40
2.024590712057879
 10
-64.81357715439681
 20
133.7490269997959
 30
0.0
 10
-64.82301505253866
 20
133.786488198842
 30
0.0
 10
-64.84188700043846
 20
133.8613952623212
 30
0.0
 10
-64.88257377352207
 20
133.979171262237
 30
0.0
 10
-64.93714330447914
 20
134.1008309828268
 30
0.0
 10
-65.0446300642587
 20
134.2906984526718
 30
0.0
 10
-65.23311205893363
 20
134.5208286184638
 30
0.0
 10
-65.50659232205629
 20
134.7229916043096
 30
0.0
 10
-65.78383797339797
 20
134.8477905531925
 30
0.0
 10
-65.99629440205999
 20
134.9008564036108
 30
0.0
 10
-66.16197897702928
 20
134.9197438326937
 30
0.0
 10
-66.23912370440102
 20
134.9218745259707
 30
0.0
 10
-66.27770395791704
 20
134.9229400833028
 30
0.0
 11
-64.81357715439681
 21
133.7490269997959
 31
0.0
 11
-64.84348554809813
 21
133.8609550744571
 31
0.0
 11
-64.88119686414078
 21
133.9704506387921
 31
0.0
 11
-64.93907217825249
 21
134.0997450476038
 31
0.0
 11
-65.00902362788833
 21
134.2232213814322
 31
0.0
 11
-65.24371727990626
 21
134.5096187877396
 31
0.0
 11
-65.54141692428914
 21
134.7297994098922
 31
0.0
 11
-65.78676217918766
 21
134.8403235340681
 31
0.0
 11
-66.04710425272204
 21
134.9051088171167
 31
0.0
 11
-66.16206609050603
 21
134.918088574649
 31
0.0
 11
-66.27770395791704
 21
134.9229400833028
 31
0.0
  0
SPLINE
  5
30D
330
1F
100
AcDbEntity
  8
0
  6
Continuous
 62
     7
100
AcDbSpline
210
0.0
220
0.0
230
1.0
 70
    24
 71
     3
 72
    15
 73
    11
 74
     9
 42
0.000000001
 43
0.0000000001
 44
0.00000001
 40
0.0
 40
0.0
 40
0.0
 40
0.0
 40
0.1518421889868629
 40
0.3001630847050362
 40
0.518529931610308
 40
0.7071067811866544
 40
0.8550592911984058
 40
0.953887898330054
 40
0.9769439491650163
 40
1.00000000000006
 40
1.00000000000006
 40
1.00000000000006
 40
1.00000000000006
 10
-64.81357715439681
 20
133.7490269997959
 30
0.0
 10
-64.86298075857478
 20
133.7380239426229
 30
0.0
 10
-64.96064227362898
 20
133.7162729944559
 30
0.0
 10
-65.12935195613973
 20
133.6786983617306
 30
0.0
 10
-65.3100136833587
 20
133.6384617970784
 30
0.0
 10
-65.4905555520473
 20
133.5982519270427
 30
0.0
 10
-65.63220427831406
 20
133.5667042482949
 30
0.0
 10
-65.71999890725252
 20
133.5471508303254
 30
0.0
 10
-65.76715703540313
 20
133.5366478804123
 30
0.0
 10
-65.78216013851906
 20
133.5333064237695
 30
0.0
 10
-65.78966169007704
 20
133.5316356954481
 30
0.0
 11
-64.81357715439681
 21
133.7490269997959
 31
0.0
 11
-64.9617879669307
 21
133.716017828277
 31
0.0
 11
-65.1065616995594
 21
133.6837741552948
 31
0.0
 11
-65.31970620192885
 21
133.6363031016198
 31
0.0
 11
-65.5037731485876
 21
133.5953081343205
 31
0.0
 11
-65.64818730562514
 21
133.5631445451875
 31
0.0
 11
-65.74465238072919
 21
133.5416600653763
 31
0.0
 11
-65.76715703540307
 21
133.5366478804122
 31
0.0
 11
-65.78966169007704
 21
133.5316356954481
 31
0.0
  0
SPLINE
  5
30E
330
1F
100
AcDbEntity
  8
0
  6
Continuous
 62
     7
100
AcDbSpline
210
0.0
220
0.0
230
1.0
 70
     8
 71
     3
 72
    17
 73
    13
 74
    11
 42
0.000000001
 43
0.0000000001
 44
0.00000001
 40
0.0
 40
0.0
 40
0.0
 40
0.0
 40
0.1157396332521738
 40
0.2314319296095692
 40
0.4997136944317659
 40
0.7688044850111435
 40
1.139080845813096
 40
1.509357206384477
 40
1.651271217712972
 40
1.792927747556936
 40
1.90873552292012
 40
2.024590711986638
 40
2.024590711986638
 40
2.024590711986638
 40
2.024590711986638
 10
-63.2518419363799
 20
133.7490270084979
 30
0.0
 10
-63.24241484628606
 20
133.7864529673502
 30
0.0
 10
-63.22356450778639
 20
133.8612895743102
 30
0.0
 10
-63.16911038732559
 20
134.0189057749393
 30
0.0
 10
-63.07112744748856
 20
134.2147451377363
 30
0.0
 10
-62.8890423436767
 20
134.4582300999282
 30
0.0
 10
-62.63226195843443
 20
134.6812214712141
 30
0.0
 10
-62.36666114068009
 20
134.8151675225212
 30
0.0
 10
-62.15796780741145
 20
134.8788081384007
 30
0.0
 10
-62.02735472387943
 20
134.905624855525
 30
0.0
 10
-61.90355041387753
 20
134.9197351142752
 30
0.0
 10
-61.8263321353596
 20
134.9218715926941
 30
0.0
 10
-61.78771509378829
 20
134.9229400432742
 30
0.0
 11
-63.2518419363799
 21
133.7490270084979
 31
0.0
 11
-63.22196777337462
 21
133.8608447054441
 31
0.0
 11
-63.18430671272445
 21
133.9702355284615
 31
0.0
 11
-63.06447470523847
 21
134.2102676019481
 31
0.0
 11
-62.90325791323298
 21
134.4257182929344
 31
0.0
 11
-62.62362569889584
 21
134.6684329594507
 31
0.0
 11
-62.29305726040494
 21
134.835253498087
 31
0.0
 11
-62.15732716384826
 21
134.8766893246428
 31
0.0
 11
-62.01854338414688
 21
134.9050730385017
 31
0.0
 11
-61.90346826375193
 21
134.9180791029785
 31
0.0
 11
-61.78771509378829
 21
134.9229400432742
 31
0.0
  0
SPLINE
  5
30F
330
1F
100
AcDbEntity
  8
0
  6
Continuous
 62
     7
100
AcDbSpline
210
0.0
220
0.0
230
1.0
 70
    24
 71
     3
 72
    15
 73
    11
 74
     9
 42
0.000000001
 43
0.0000000001
 44
0.00000001
 40
0.0
 40
0.0
 40
0.0
 40
0.0
 40
0.0230560508349242
 40
0.04611210166982
 40
0.1449407088011867
 40
0.2928932188128215
 40
0.4814700683892852
 40
0.6998369152948101
 40
0.848157811013067
 40
1.0
 40
1.0
 40
1.0
 40
1.0
 10
-61.78771509378829
 20
133.9229400432742
 30
0.0
 10
-61.78771509378828
 20
133.9306253935525
 30
0.0
 10
-61.78771509378826
 20
133.9459960941091
 30
0.0
 10
-61.78771509378813
 20
133.9943096637095
 30
0.0
 10
-61.78771509378807
 20
134.0842553863689
 30
0.0
 10
-61.78771509378795
 20
134.2293747086086
 30
0.0
 10
-61.78771509378804
 20
134.4143401107732
 30
0.0
 10
-61.78771509378818
 20
134.5994283081733
 30
0.0
 10
-61.78771509378828
 20
134.7722716187101
 30
0.0
 10
-61.78771509378831
 20
134.8723259802786
 30
0.0
 10
-61.78771509378829
 20
134.9229400432742
 30
0.0
 11
-61.78771509378829
 21
133.9229400432742
 31
0.0
 11
-61.78771509378829
 21
133.9459960941092
 31
0.0
 11
-61.78771509378829
 21
133.9690521449442
 31
0.0
 11
-61.78771509378829
 21
134.0678807520758
 31
0.0
 11
-61.78771509378829
 21
134.2158332620876
 31
0.0
 11
-61.78771509378829
 21
134.404410111664
 31
0.0
 11
-61.78771509378829
 21
134.6227769585692
 31
0.0
 11
-61.78771509378829
 21
134.7710978542873
 31
0.0
 11
-61.78771509378829
 21
134.9229400432742
 31
0.0
  0
SPLINE
  5
310
330
1F
100
AcDbEntity
  8
0
  6
Continuous
 62
     7
100
AcDbSpline
210
0.0
220
0.0
230
1.0
 70
    24
 71
     3
 72
    15
 73
    11
 74
     9
 42
0.000000001
 43
0.0000000001
 44
0.00000001
 40
0.0
 40
0.0
 40
0.0
 40
0.0
 40
0.1518421889868122
 40
0.3001630847048915
 40
0.5185299316099616
 40
0.7071067811862122
 40
0.8550592911981099
 40
0.9538878983299526
 40
0.9769439491649266
 40
1.0
 40
1.0
 40
1.0
 40
1.0
 10
-55.7827095258527
 20
132.9229400432742
 30
0.0
 10
-55.83332358884829
 20
132.9229400432742
 30
0.0
 10
-55.93337795041661
 20
132.9229400432742
 30
0.0
 10
-56.10622126095326
 20
132.9229400432742
 30
0.0
 10
-56.29130945835307
 20
132.9229400432743
 30
0.0
 10
-56.47627486051746
 20
132.9229400432742
 30
0.0
 10
-56.62139418275748
 20
132.9229400432742
 30
0.0
 10
-56.71133990541701
 20
132.9229400432742
 30
0.0
 10
-56.75965347501767
 20
132.9229400432742
 30
0.0
 10
-56.77502417557433
 20
132.9229400432742
 30
0.0
 10
-56.7827095258527
 20
132.9229400432742
 30
0.0
 11
-55.7827095258527
 21
132.9229400432742
 31
0.0
 11
-55.93455171483957
 21
132.9229400432742
 31
0.0
 11
-56.08287261055774
 21
132.9229400432742
 31
0.0
 11
-56.30123945746293
 21
132.9229400432742
 31
0.0
 11
-56.48981630703919
 21
132.9229400432742
 31
0.0
 11
-56.63776881705101
 21
132.9229400432742
 31
0.0
 11
-56.73659742418273
 21
132.9229400432742
 31
0.0
 11
-56.75965347501767
 21
132.9229400432742
 31
0.0
 11
-56.7827095258527
 21
132.9229400432742
 31
0.0
  0
ARC
  5
311
102
{ACAD_REACTORS
330
371
102
}
330
1F
100
AcDbEntity
  8
1
  6
Continuous
 62
     7
100
AcDbCircle
 10
-72.03270952585281
 20
46.47294004327394
 30
0.0
 40
4.0
100
AcDbArc
 50
90.0
 51
180.0
  0
ARC
  5
312
102
{ACAD_REACTORS
330
371
102
}
330
1F
100
AcDbEntity
  8
1
  6
Continuous
 62
     7
100
AcDbCircle
 10
-72.0327095258527
 20
30.47294004327387
 30
0.0
 40
4.0
100
AcDbArc
 50
180.0
 51
270.0
  0
ARC
  5
313
102
{ACAD_REACTORS
330
371
102
}
330
1F
100
AcDbEntity
  8
1
  6
Continuous
 62
     7
100
AcDbCircle
 10
-56.0327095258527
 20
30.47294004327387
 30
0.0
 40
4.0
100
AcDbArc
 50
270.0
 51
0.0
  0
ARC
  5
314
102
{ACAD_REACTORS
330
371
102
}
330
1F
100
AcDbEntity
  8
1
  6
Continuous
 62
     7
100
AcDbCircle
 10
-56.0327095258527
 20
46.47294004327394
 30
0.0
 40
4.0
100
AcDbArc
 50
0.0
 51
90.0
  0
ARC
  5
315
102
{ACAD_REACTORS
330
362
102
}
330
1F
100
AcDbEntity
  8
1
  6
Continuous
 62
     2
100
AcDbCircle
 10
-64.33270952585265
 20
39.19969009132405
 30
0.0
 40
0.1000000000000227
100
AcDbArc
 50
0.0
 51
119.9816393688531
  0
ARC
  5
316
102
{ACAD_REACTORS
330
362
102
}
330
1F
100
AcDbEntity
  8
1
  6
Continuous
 62
     2
100
AcDbCircle
 10
-64.33270952585265
 20
37.74618999522358
 30
0.0
 40
0.099999999999981
100
AcDbArc
 50
240.0183606311469
 51
0.0
  0
ARC
  5
317
330
1F
100
AcDbEntity
  8
1
  6
Continuous
 62
     2
100
AcDbCircle
 10
-66.03265398572064
 20
38.47294004327384
 30
0.0
 40
0.0499999999999843
100
AcDbArc
 50
119.9816393688572
 51
240.0183606311672
  0
ARC
  5
318
330
1F
100
AcDbEntity
  8
1
  6
Continuous
 62
     2
100
AcDbCircle
 10
-61.03276506598463
 20
38.47294004327384
 30
0.0
 40
0.0500000000000177
100
AcDbArc
 50
299.9816393688257
 51
60.01836063114986
  0
ARC
  5
319
102
{ACAD_REACTORS
330
364
102
}
330
1F
100
AcDbEntity
  8
1
  6
Continuous
 62
     2
100
AcDbCircle
 10
-62.83270952585265
 20
39.14193369886406
 30
0.0
 40
0.2000000000000526
100
AcDbArc
 50
0.0
 51
60.01836063116505
  0
ARC
  5
31A
102
{ACAD_REACTORS
330
363
102
}
330
1F
100
AcDbEntity
  8
1
  6
Continuous
 62
     2
100
AcDbCircle
 10
-63.53270952585264
 20
38.37294004327385
 30
0.0
 40
0.0500000000000223
100
AcDbArc
 50
29.99999999995518
 51
149.9999999999837
  0
ARC
  5
31B
330
1F
100
AcDbEntity
  8
1
  6
Continuous
 62
     7
100
AcDbCircle
 10
-67.92453759589456
 20
37.4210662075862
 30
0.0
 40
1.499999999999997
100
AcDbArc
 50
42.00000000000009
 51
131.9999999999987
  0
ARC
  5
31C
330
1F
100
AcDbEntity
  8
1
  6
Continuous
 62
     7
100
AcDbCircle
 10
-65.44875435236686
 20
34.6714303533199
 30
0.0
 40
1.500000000000002
100
AcDbArc
 50
312.0000000000003
 51
41.99999999999883
  0
ARC
  5
31D
102
{ACAD_REACTORS
330
36A
102
}
330
1F
100
AcDbEntity
  8
1
  6
Continuous
 62
     7
100
AcDbCircle
 10
-11.6827095258524
 20
68.842940043274
 30
0.0
 40
0.3000000000000203
100
AcDbArc
 50
0.0
 51
90.0
  0
ARC
  5
31E
102
{ACAD_REACTORS
330
36A
102
}
330
1F
100
AcDbEntity
  8
1
  6
Continuous
 62
     7
100
AcDbCircle
 10
-11.6827095258524
 20
67.14294004327401
 30
0.0
 40
0.3000000000000114
100
AcDbArc
 50
270.0
 51
0.0
  0
ARC
  5
31F
102
{ACAD_REACTORS
330
36A
102
}
330
1F
100
AcDbEntity
  8
1
  6
Continuous
 62
     7
100
AcDbCircle
 10
-35.08270952585232
 20
67.14294004327401
 30
0.0
 40
0.2999999999998906
100
AcDbArc
 50
180.0
 51
270.0
  0
ARC
  5
320
102
{ACAD_REACTORS
330
36A
102
}
330
1F
100
AcDbEntity
  8
1
  6
Continuous
 62
     7
100
AcDbCircle
 10
-35.08270952585232
 20
68.842940043274
 30
0.0
 40
0.3000000000000114
100
AcDbArc
 50
90.0
 51
180.0
  0
ARC
  5
321
102
{ACAD_REACTORS
330
36B
102
}
330
1F
100
AcDbEntity
  8
1
  6
Continuous
 62
     7
100
AcDbCircle
 10
-75.7327095258524
 20
68.842940043274
 30
0.0
 40
0.3000000000000114
100
AcDbArc
 50
90.0
 51
180.0
  0
ARC
  5
322
102
{ACAD_REACTORS
330
36B
102
}
330
1F
100
AcDbEntity
  8
1
  6
Continuous
 62
     7
100
AcDbCircle
 10
-75.7327095258524
 20
67.14294004327401
 30
0.0
 40
0.2999999999998977
100
AcDbArc
 50
180.0
 51
270.0
  0
ARC
  5
323
102
{ACAD_REACTORS
330
36B
102
}
330
1F
100
AcDbEntity
  8
1
  6
Continuous
 62
     7
100
AcDbCircle
 10
-52.33270952585248
 20
67.14294004327401
 30
0.0
 40
0.3000000000000114
100
AcDbArc
 50
270.0
 51
0.0
  0
ARC
  5
324
102
{ACAD_REACTORS
330
36B
102
}
330
1F
100
AcDbEntity
  8
1
  6
Continuous
 62
     7
100
AcDbCircle
 10
-52.33270952585248
 20
68.842940043274
 30
0.0
 40
0.2999999999998977
100
AcDbArc
 50
0.0
 51
90.0
  0
ARC
  5
325
102
{ACAD_REACTORS
330
36C
102
}
330
1F
100
AcDbEntity
  8
1
  6
Continuous
 62
     7
100
AcDbCircle
 10
-56.0327095258527
 20
134.6229400432741
 30
0.0
 40
4.0
100
AcDbArc
 50
0.0
 51
90.0
  0
ARC
  5
326
102
{ACAD_REACTORS
330
36C
102
}
330
1F
100
AcDbEntity
  8
1
  6
Continuous
 62
     7
100
AcDbCircle
 10
-56.0327095258527
 20
118.622940043274
 30
0.0
 40
4.0
100
AcDbArc
 50
270.0
 51
0.0
  0
ARC
  5
327
102
{ACAD_REACTORS
330
36C
102
}
330
1F
100
AcDbEntity
  8
1
  6
Continuous
 62
     7
100
AcDbCircle
 10
-72.0327095258527
 20
118.622940043274
 30
0.0
 40
4.0
100
AcDbArc
 50
180.0
 51
270.0
  0
ARC
  5
328
102
{ACAD_REACTORS
330
36C
102
}
330
1F
100
AcDbEntity
  8
1
  6
Continuous
 62
     7
100
AcDbCircle
 10
-72.03270952585281
 20
134.6229400432741
 30
0.0
 40
4.0
100
AcDbArc
 50
90.0
 51
180.0
  0
ARC
  5
329
102
{ACAD_REACTORS
330
36E
102
}
330
1F
100
AcDbEntity
  8
1
  6
Continuous
 62
     7
100
AcDbCircle
 10
-9.16184965562866
 20
6.41666666666663
 30
0.0
 40
0.0833333333333545
100
AcDbArc
 50
209.9999999999622
 51
330.0000000000177
  0
ARC
  5
32A
102
{ACAD_REACTORS
330
36F
102
}
330
1F
100
AcDbEntity
  8
1
  6
Continuous
 62
     7
100
AcDbCircle
 10
-10.32851632229534
 20
5.13501057401635
 30
0.0
 40
0.3333333333333215
100
AcDbArc
 50
180.0000000000104
 51
240.0183606311564
  0
ARC
  5
32B
330
1F
100
AcDbEntity
  8
1
  6
Continuous
 62
     7
100
AcDbCircle
 10
-13.32842375540861
 20
6.25
 30
0.0
 40
0.0833333333333053
100
AcDbArc
 50
119.9816393688866
 51
240.0183606311338
  0
ARC
  5
32C
330
1F
100
AcDbEntity
  8
1
  6
Continuous
 62
     7
100
AcDbCircle
 10
-4.99527555584871
 20
6.25
 30
0.0
 40
0.0833333333333293
100
AcDbArc
 50
299.9816393688334
 51
60.01836063114615
  0
ARC
  5
32D
102
{ACAD_REACTORS
330
370
102
}
330
1F
100
AcDbEntity
  8
1
  6
Continuous
 62
     7
100
AcDbCircle
 10
-7.82851632229534
 20
7.46125008008369
 30
0.0
 40
0.1666666666666874
100
AcDbArc
 50
60.01836063114941
 51
180.0
  0
ARC
  5
32E
102
{ACAD_REACTORS
330
370
102
}
330
1F
100
AcDbEntity
  8
1
  6
Continuous
 62
     7
100
AcDbCircle
 10
-7.82851632229534
 20
5.03874991991631
 30
0.0
 40
0.1666666666666252
100
AcDbArc
 50
180.0
 51
299.9816393688506
  0
ARC
  5
32F
330
1F
100
AcDbEntity
  8
1
  6
Continuous
 62
     7
100
AcDbCircle
 10
-62.23270952585268
 20
28.7972041119856
 30
0.0
 40
0.3000000000000114
100
AcDbArc
 50
180.0
 51
224.9999999999971
  0
ARC
  5
330
330
1F
100
AcDbEntity
  8
1
  6
Continuous
 62
     7
100
AcDbCircle
 10
-65.83270952585269
 20
28.7972041119856
 30
0.0
 40
0.3000000000000547
100
AcDbArc
 50
315.0000000000038
 51
0.0
  0
MTEXT
  5
332
330
1F
100
AcDbEntity
  8
1
 62
     7
100
AcDbMText
 10
-97.0000000000001
 20
75.74999999999993
 30
0.0
 40
2.0
 41
0.0
 71
     5
 72
     1
  1
Diritti riservati      All rights reserved
  7
CONVERTER_11
 11
0.0
 21
1.0
 31
0.0
 73
     1
 44
1.32052821128451
  0
MTEXT
  5
333
330
1F
100
AcDbEntity
  8
1
 62
     7
100
AcDbMText
 10
-88.20000000000009
 20
4.37499999999999
 30
0.0
 40
1.5
 41
0.0
 71
     4
 72
     1
  1
T.Tedeschi
  7
CONVERTER_11
 73
     1
 44
1.32052821128451
  0
MTEXT
  5
334
330
1F
100
AcDbEntity
  8
1
 62
     7
100
AcDbMText
 10
-93.50000000000004
 20
4.37499999999999
 30
0.0
 40
1.5
 41
0.0
 71
     4
 72
     1
  1
Sign.
  7
CONVERTER_11
 73
     1
 44
1.32052821128451
  0
MTEXT
  5
335
330
1F
100
AcDbEntity
  8
1
 62
     7
100
AcDbMText
 10
-88.20000000000009
 20
8.13031971037798
 30
0.0
 40
1.5
 41
0.0
 71
     4
 72
     1
  1
01/02/07
  7
CONVERTER_11
 73
     1
 44
1.32052821128451
  0
MTEXT
  5
336
330
1F
100
AcDbEntity
  8
1
 62
     7
100
AcDbMText
 10
-93.50000000000004
 20
8.13031971037798
 30
0.0
 40
1.5
 41
0.0
 71
     4
 72
     1
  1
Date
  7
CONVERTER_11
 73
     1
 44
1.32052821128451
  0
MTEXT
  5
337
330
1F
100
AcDbEntity
  8
1
 62
     7
100
AcDbMText
 10
-20.16184965562864
 20
8.13031971037798
 30
0.0
 40
1.5
 41
0.0
 71
     5
 72
     1
  1
Scale
  7
CONVERTER_11
 73
     1
 44
1.32052821128451
  0
MTEXT
  5
338
330
1F
100
AcDbEntity
  8
1
 62
     7
100
AcDbMText
 10
-20.16184965562864
 20
5.03031971037801
 30
0.0
 40
2.25
 41
0.0
 71
     5
 72
     1
  1
2:1
  7
CONVERTER_11
 73
     1
 44
1.32052821128451
  0
MTEXT
  5
33A
330
1F
100
AcDbEntity
  8
1
 62
     7
100
AcDbMText
 10
-70.26297409511854
 20
42.72330562520632
 30
0.0
 40
1.3
 41
0.0
 71
     5
 72
     1
  1
3
  7
CONVERTER_12
 11
-1.0
 21
0.0
 31
0.0
 73
     1
 44
1.32052821128451
  0
MTEXT
  5
33B
330
1F
100
AcDbEntity
  8
1
 62
     7
100
AcDbMText
 10
-57.8214183737211
 20
34.63631928537831
 30
0.0
 40
1.3
 41
0.0
 71
     5
 72
     1
  1
1
  7
CONVERTER_12
 11
-1.0
 21
0.0
 31
0.0
 73
     1
 44
0.84033613445378
  0
MTEXT
  5
33C
330
1F
100
AcDbEntity
  8
1
 62
     7
100
AcDbMText
 10
-57.8024449565868
 20
42.72330562520632
 30
0.0
 40
1.3
 41
0.0
 71
     5
 72
     1
  1
2
  7
CONVERTER_12
 11
-1.0
 21
0.0
 31
0.0
 73
     1
 44
1.32052821128451
  0
MTEXT
  5
33D
330
1F
100
AcDbEntity
  8
1
 62
     4
100
AcDbMText
 10
-70.3827095258526
 20
124.9729400432738
 30
0.0
 40
1.3
 41
0.0
 71
     1
 72
     1
  1
3
  7
CONVERTER_12
 73
     1
 44
1.32052821128451
  0
MTEXT
  5
33E
330
1F
100
AcDbEntity
  8
1
 62
     4
100
AcDbMText
 10
-57.68270952585262
 20
124.9729400432738
 30
0.0
 40
1.3
 41
0.0
 71
     3
 72
     1
  1
2
  7
CONVERTER_12
 73
     1
 44
1.32052821128451
  0
MTEXT
  5
33F
330
1F
100
AcDbEntity
  8
1
 62
     4
100
AcDbMText
 10
-57.88270952585272
 20
128.3729400432739
 30
0.0
 40
1.3
 41
0.0
 71
     9
 72
     1
  1
1
  7
CONVERTER_12
 73
     1
 44
0.84033613445378
  0
MTEXT
  5
340
330
1F
100
AcDbEntity
  8
1
 62
     7
100
AcDbMText
 10
-76.36
 20
6.25
 30
0.0
 40
2.25
 41
0.0
 71
     4
 72
     1
  1
CKSM 03\Pmale insert spring 3P+       10A 400V
  7
CONVERTER_11
 73
     1
 44
0.90036014405762
  0
DIMENSION
  5
34B
330
1F
100
AcDbEntity
  8
1
100
AcDbDimension
  2
*D5
 10
-84.2583918153566
 20
94.49294004327392
 30
0.0
 11
-86.0833918153566
 21
78.7429400432738
 31
0.0
 70
    32
  1
<>
 71
     5
 42
-1.0
 53
90.0
  3
ME10_DIM_10
100
AcDbAlignedDimension
 13
-74.5327095258527
 23
62.99294004327369
 33
0.0
 14
-74.5327095258527
 24
94.49294004327392
 34
0.0
 50
90.0
100
AcDbRotatedDimension
  0
DIMENSION
  5
356
330
1F
100
AcDbEntity
  8
1
100
AcDbDimension
  2
*D6
 10
-33.88270952585301
 20
100.994807995181
 30
0.0
 11
-23.38270952585301
 21
102.744807995181
 31
0.0
 70
    32
  1
<>
 71
     5
 42
-1.0
 53
0.00013888888889
  3
ME10_DIM_11
100
AcDbAlignedDimension
 13
-12.88270952585301
 23
94.492940043274
 33
0.0
 14
-33.88270952585301
 24
94.49294004327349
 34
0.0
100
AcDbRotatedDimension
  0
DIMENSION
  5
361
330
1F
100
AcDbEntity
  8
1
100
AcDbDimension
  2
*D7
 10
-74.5327095258527
 20
100.994807995181
 30
0.0
 11
-64.0327095258527
 21
102.744807995181
 31
0.0
 70
    32
  1
<>
 71
     5
 42
-1.0
 53
0.00013888888889
  3
ME10_DIM_12
100
AcDbAlignedDimension
 13
-53.5327095258527
 23
94.4929400432737
 33
0.0
 14
-74.5327095258527
 24
91.99294004327494
 34
0.0
100
AcDbRotatedDimension
  0
HATCH
  5
362
330
1F
100
AcDbEntity
  8
1
  6
Continuous
 62
     2
100
AcDbHatch
 10
0.0
 20
0.0
 30
0.0
210
0.0
220
0.0
230
1.0
  2
SOLID
 70
     1
 71
     1
 91
        1
 92
        1
 93
       14
 72
     1
 10
-64.3826817712016
 20
37.65957143661874
 11
-64.78268177120158
 21
37.89034066738794
 72
     2
 10
-64.73270952585263
 20
37.97695922599278
 40
0.0999999999999758
 50
119.9816393688531
 51
299.9816393687421
 73
     0
 72
     1
 10
-64.68273728050384
 20
38.06357778459771
 11
-64.43270952585267
 21
37.91933100306824
 72
     1
 10
-64.43270952585267
 20
37.91933100306824
 11
-64.43270952585267
 21
38.37294004327385
 72
     1
 10
-64.43270952585267
 20
38.37294004327385
 11
-64.73270952585263
 21
38.37294004327385
 72
     2
 10
-64.73270952585263
 20
38.47294004327384
 40
0.1000000000000014
 50
90.0
 51
270.0
 73
     0
 72
     1
 10
-64.73270952585263
 20
38.57294004327384
 11
-64.43270952585267
 21
38.57294004327384
 72
     1
 10
-64.43270952585267
 20
38.57294004327384
 11
-64.43270952585267
 21
39.02654908347939
 72
     1
 10
-64.43270952585267
 20
39.02654908347939
 11
-64.68273728050384
 21
38.88230230194996
 72
     2
 10
-64.73270952585263
 20
38.96892086055485
 40
0.099999999999981
 50
60.01836063124572
 51
240.0183606311469
 73
     0
 72
     1
 10
-64.78268177120158
 20
39.05553941915969
 11
-64.3826817712016
 21
39.28630864992889
 72
     2
 10
-64.33270952585265
 20
39.19969009132405
 40
0.1000000000000227
 50
240.0183606311469
 51
360.0
 73
     0
 72
     1
 10
-64.23270952585263
 20
39.19969009132405
 11
-64.23270952585263
 21
37.74618999522358
 72
     2
 10
-64.33270952585265
 20
37.74618999522358
 40
0.099999999999981
 50
0.0
 51
119.9816393688531
 73
     0
 97
       14
330
69
330
2AE
330
68
330
67
330
66
330
2AD
330
65
330
64
330
63
330
2AC
330
62
330
315
330
61
330
316
 75
     0
 76
     1
 98
        1
 10
0.0
 20
0.0
  0
HATCH
  5
363
330
1F
100
AcDbEntity
  8
1
  6
Continuous
 62
     2
100
AcDbHatch
 10
0.0
 20
0.0
 30
0.0
210
0.0
220
0.0
230
1.0
  2
SOLID
 70
     1
 71
     1
 91
        1
 92
        1
 93
       16
 72
     1
 10
-63.18103963093968
 20
37.46382991779215
 11
-63.53270952585264
 21
38.07294004327384
 72
     1
 10
-63.53270952585264
 20
38.07294004327384
 11
-63.8843794207656
 21
37.46382991779215
 72
     2
 10
-63.95321966211004
 20
37.50357484966344
 40
0.0794898637426016
 50
29.99999999999956
 51
180.0
 73
     0
 72
     1
 10
-64.03270952585264
 20
37.50357484966344
 11
-64.03270952585264
 21
39.43045932209328
 72
     2
 10
-63.93270952585267
 20
39.43045932209328
 40
0.1000000000000227
 50
180.0
 51
360.0
 73
     0
 72
     1
 10
-63.83270952585265
 20
39.43045932209328
 11
-63.83270952585265
 21
38.47294004327384
 72
     1
 10
-63.83270952585265
 20
38.47294004327384
 11
-63.83270952585265
 21
37.95332480100314
 72
     1
 10
-63.83270952585265
 20
37.95332480100314
 11
-63.57601079604179
 21
38.39794004327383
 72
     2
 10
-63.53270952585264
 20
38.37294004327385
 40
0.0500000000000223
 50
210.0000000000162
 51
330.0000000000448
 73
     0
 72
     1
 10
-63.48940825566338
 20
38.39794004327383
 11
-63.23270952585263
 21
37.95332480100314
 72
     1
 10
-63.23270952585263
 20
37.95332480100314
 11
-63.23270952585263
 21
38.47294004327384
 72
     1
 10
-63.23270952585263
 20
38.47294004327384
 11
-63.23270952585263
 21
38.96866452148397
 72
     2
 10
-63.13270952585266
 20
38.96866452148397
 40
0.1000000000000227
 50
180.0
 51
360.0
 73
     0
 72
     1
 10
-63.03270952585264
 20
38.96866452148397
 11
-63.03270952585264
 21
38.47294004327384
 72
     1
 10
-63.03270952585264
 20
38.47294004327384
 11
-63.03270952585264
 21
37.50357484966344
 72
     2
 10
-63.11219938959523
 20
37.50357484966344
 40
0.0794898637425875
 50
0.0
 51
150.000000000003
 73
     0
 97
       16
330
76
330
71
330
2B3
330
72
330
2B4
330
73
330
7F
330
7E
330
31A
330
7D
330
7C
330
74
330
2B5
330
75
330
77
330
2B6
 75
     0
 76
     1
 98
        1
 10
0.0
 20
0.0
  0
HATCH
  5
364
330
1F
100
AcDbEntity
  8
1
  6
Continuous
 62
     2
100
AcDbHatch
 10
0.0
 20
0.0
 30
0.0
210
0.0
220
0.0
230
1.0
  2
SOLID
 70
     1
 71
     1
 91
        1
 92
        1
 93
        7
 72
     1
 10
-62.83270952585265
 20
37.74618999522358
 11
-62.83270952585265
 21
39.14193369886406
 72
     1
 10
-62.83270952585265
 20
39.14193369886406
 11
-63.48268177120168
 21
39.51691768656534
 72
     2
 10
-63.43270952585267
 20
39.60353624517018
 40
0.1000000000000548
 50
119.9816393688813
 51
299.9816393688287
 73
     0
 72
     1
 10
-63.38273728050372
 20
39.69015480377511
 11
-62.7327650351548
 21
39.31517081607377
 72
     2
 10
-62.83270952585265
 20
39.14193369886406
 40
0.2000000000000526
 50
299.9816393688349
 51
360.0
 73
     0
 72
     1
 10
-62.6327095258526
 20
39.14193369886406
 11
-62.6327095258526
 21
37.74618999522358
 72
     2
 10
-62.73270952585263
 20
37.74618999522358
 40
0.1000000000000227
 50
0.0
 51
180.0
 73
     0
 97
        7
330
6F
330
6E
330
2B1
330
6D
330
319
330
70
330
2B2
 75
     0
 76
     1
 98
        1
 10
0.0
 20
0.0
  0
HATCH
  5
365
330
1F
100
AcDbEntity
  8
1
  6
Continuous
 62
     2
100
AcDbHatch
 10
0.0
 20
0.0
 30
0.0
210
0.0
220
0.0
230
1.0
  2
SOLID
 70
     1
 71
     1
 91
        1
 92
        1
 93
        5
 72
     1
 10
-62.43270952585267
 20
37.97695922599278
 11
-62.43270952585267
 21
38.9111644680948
 72
     1
 10
-62.43270952585267
 20
38.9111644680948
 11
-62.43270952585267
 21
38.96892086055485
 72
     2
 10
-62.33270952585265
 20
38.96892086055485
 40
0.099999999999973
 50
180.0
 51
360.0
 73
     0
 72
     1
 10
-62.23270952585268
 20
38.96892086055485
 11
-62.23270952585268
 21
37.97695922599278
 72
     2
 10
-62.33270952585265
 20
37.97695922599278
 40
0.1000000000000227
 50
0.0
 51
180.0
 73
     0
 97
        5
330
6C
330
6B
330
2AF
330
6A
330
2B0
 75
     0
 76
     1
 98
        1
 10
0.0
 20
0.0
  0
HATCH
  5
366
330
1F
100
AcDbEntity
  8
1
  6
Continuous
 62
     2
100
AcDbHatch
 10
0.0
 20
0.0
 30
0.0
210
0.0
220
0.0
230
1.0
  2
SOLID
 70
     1
 71
     1
 91
        1
 92
        1
 93
        3
 72
     1
 10
-67.91623538369505
 20
33.5262066371692
 11
-68.98684435386919
 21
34.71523835793298
 72
     1
 10
-68.98684435386919
 20
34.71523835793298
 11
-69.08321297043797
 21
33.55196148214601
 72
     1
 10
-69.08321297043797
 20
33.55196148214601
 11
-67.91623538369505
 21
33.5262066371692
 97
        3
330
85
330
86
330
84
 75
     0
 76
     1
 98
        1
 10
0.0
 20
0.0
  0
HATCH
  5
367
330
1F
100
AcDbEntity
  8
1
  6
Continuous
 62
     2
100
AcDbHatch
 10
0.0
 20
0.0
 30
0.0
210
0.0
220
0.0
230
1.0
  2
SOLID
 70
     1
 71
     1
 91
        1
 92
        1
 93
        3
 72
     1
 10
-58.95819707897307
 20
32.6295509906899
 11
-57.78803115638233
 21
33.72074836678991
 72
     1
 10
-57.78803115638233
 20
33.72074836678991
 11
-58.95281272373087
 21
33.7968003251163
 72
     1
 10
-58.95281272373087
 20
33.7968003251163
 11
-58.95819707897307
 21
32.6295509906899
 97
        3
330
88
330
87
330
89
 75
     0
 76
     1
 98
        1
 10
0.0
 20
0.0
  0
HATCH
  5
368
330
1F
100
AcDbEntity
  8
1
  6
Continuous
 62
     2
100
AcDbHatch
 10
0.0
 20
0.0
 30
0.0
210
0.0
220
0.0
230
1.0
  2
SOLID
 70
     1
 71
     1
 91
        1
 92
        1
 93
        3
 72
     1
 10
-69.16156774916648
 20
43.60179826658749
 11
-69.19692308822592
 21
44.7685244555454
 72
     1
 10
-69.19692308822592
 20
44.7685244555454
 11
-70.32829393812433
 21
43.63715360564681
 72
     1
 10
-70.32829393812433
 20
43.63715360564681
 11
-69.16156774916648
 21
43.60179826658749
 97
        3
330
8B
330
8A
330
8C
 75
     0
 76
     1
 98
        1
 10
0.0
 20
0.0
  0
HATCH
  5
369
330
1F
100
AcDbEntity
  8
1
  6
Continuous
 62
     2
100
AcDbHatch
 10
0.0
 20
0.0
 30
0.0
210
0.0
220
0.0
230
1.0
  2
SOLID
 70
     1
 71
     1
 91
        1
 92
        1
 93
        3
 72
     1
 10
-57.737125113581
 20
43.63715360564681
 11
-58.86849596347948
 21
44.76852445554531
 72
     1
 10
-58.86849596347948
 20
44.76852445554531
 11
-58.90385130253885
 21
43.60179826658749
 72
     1
 10
-58.90385130253885
 20
43.60179826658749
 11
-57.737125113581
 21
43.63715360564681
 97
        3
330
92
330
93
330
91
 75
     0
 76
     1
 98
        1
 10
0.0
 20
0.0
  0
HATCH
  5
36A
330
1F
100
AcDbEntity
  8
1
  6
Continuous
 62
     2
100
AcDbHatch
 10
0.0
 20
0.0
 30
0.0
210
0.0
220
0.0
230
1.0
  2
SOLID
 70
     1
 71
     1
 91
        1
 92
        1
 93
        8
 72
     1
 10
-11.6827095258524
 20
69.14294004327401
 11
-35.08270952585232
 21
69.14294004327401
 72
     2
 10
-35.08270952585232
 20
68.842940043274
 40
0.3000000000000114
 50
90.0
 51
180.0
 73
     1
 72
     1
 10
-35.38270952585221
 20
68.842940043274
 11
-35.38270952585221
 21
67.14294004327401
 72
     2
 10
-35.08270952585232
 20
67.14294004327401
 40
0.2999999999998906
 50
180.0
 51
270.0
 73
     1
 72
     1
 10
-35.08270952585232
 20
66.842940043274
 11
-11.6827095258524
 21
66.842940043274
 72
     2
 10
-11.6827095258524
 20
67.14294004327401
 40
0.3000000000000114
 50
270.0
 51
360.0
 73
     1
 72
     1
 10
-11.38270952585238
 20
67.14294004327401
 11
-11.38270952585238
 21
68.842940043274
 72
     2
 10
-11.6827095258524
 20
68.842940043274
 40
0.3000000000000203
 50
0.0
 51
90.0
 73
     1
 97
        8
330
DF
330
320
330
DE
330
31F
330
E0
330
31E
330
DD
330
31D
 75
     0
 76
     1
 98
        1
 10
0.0
 20
0.0
  0
HATCH
  5
36B
330
1F
100
AcDbEntity
  8
1
  6
Continuous
 62
     2
100
AcDbHatch
 10
0.0
 20
0.0
 30
0.0
210
0.0
220
0.0
230
1.0
  2
SOLID
 70
     1
 71
     1
 91
        1
 92
        1
 93
        8
 72
     1
 10
-52.33270952585248
 20
69.14294004327401
 11
-75.7327095258524
 21
69.14294004327401
 72
     2
 10
-75.7327095258524
 20
68.842940043274
 40
0.3000000000000114
 50
90.0
 51
180.0
 73
     1
 72
     1
 10
-76.0327095258523
 20
68.842940043274
 11
-76.0327095258523
 21
67.14294004327401
 72
     2
 10
-75.7327095258524
 20
67.14294004327401
 40
0.2999999999998977
 50
180.0
 51
270.0
 73
     1
 72
     1
 10
-75.7327095258524
 20
66.842940043274
 11
-52.33270952585248
 21
66.842940043274
 72
     2
 10
-52.33270952585248
 20
67.14294004327401
 40
0.3000000000000114
 50
270.0
 51
360.0
 73
     1
 72
     1
 10
-52.03270952585258
 20
67.14294004327401
 11
-52.03270952585258
 21
68.842940043274
 72
     2
 10
-52.33270952585248
 20
68.842940043274
 40
0.2999999999998977
 50
0.0
 51
90.0
 73
     1
 97
        8
330
E2
330
321
330
E3
330
322
330
E1
330
323
330
E4
330
324
 75
     0
 76
     1
 98
        1
 10
0.0
 20
0.0
  0
HATCH
  5
36C
330
1F
100
AcDbEntity
  8
1
  6
Continuous
 62
     2
100
AcDbHatch
 10
0.0
 20
0.0
 30
0.0
210
0.0
220
0.0
230
1.0
  2
SOLID
 70
     1
 71
     1
 91
        2
 92
        1
 93
        8
 72
     2
 10
-56.0327095258527
 20
134.6229400432741
 40
4.0
 50
0.0
 51
90.0
 73
     1
 72
     1
 10
-56.0327095258527
 20
138.6229400432741
 11
-72.03270952585281
 21
138.6229400432741
 72
     2
 10
-72.03270952585281
 20
134.6229400432741
 40
4.0
 50
90.0
 51
180.0
 73
     1
 72
     1
 10
-76.03270952585281
 20
134.6229400432741
 11
-76.0327095258527
 21
118.622940043274
 72
     2
 10
-72.0327095258527
 20
118.622940043274
 40
4.0
 50
180.0
 51
270.0
 73
     1
 72
     1
 10
-72.0327095258527
 20
114.622940043274
 11
-56.0327095258527
 21
114.622940043274
 72
     2
 10
-56.0327095258527
 20
118.622940043274
 40
4.0
 50
270.0
 51
360.0
 73
     1
 72
     1
 10
-52.0327095258527
 20
118.622940043274
 11
-52.0327095258527
 21
134.6229400432741
 97
        8
330
325
330
23F
330
328
330
240
330
327
330
23D
330
326
330
23E
 92
       16
 93
       32
 72
     2
 10
-56.5327095258527
 20
134.172940043274
 40
2.25
 50
0.0
 51
90.0
 73
     1
 72
     1
 10
-56.5327095258527
 20
136.422940043274
 11
-61.0327095258527
 21
136.422940043274
 72
     1
 10
-61.0327095258527
 20
136.422940043274
 11
-61.0327095258527
 21
137.172940043274
 72
     1
 10
-61.0327095258527
 20
137.172940043274
 11
-67.0327095258527
 21
137.172940043274
 72
     1
 10
-67.0327095258527
 20
137.172940043274
 11
-67.0327095258527
 21
136.422940043274
 72
     1
 10
-67.0327095258527
 20
136.422940043274
 11
-71.5327095258527
 21
136.422940043274
 72
     2
 10
-71.5327095258527
 20
134.172940043274
 40
2.25
 50
90.0
 51
180.0
 73
     1
 72
     1
 10
-73.7827095258527
 20
134.172940043274
 11
-73.7827095258527
 21
131.172940043274
 72
     1
 10
-73.7827095258527
 20
131.172940043274
 11
-74.5327095258527
 21
131.172940043274
 72
     1
 10
-74.5327095258527
 20
131.172940043274
 11
-74.5327095258527
 21
128.1729400432736
 72
     1
 10
-74.5327095258527
 20
128.1729400432736
 11
-73.3327095258527
 21
128.1729400432736
 72
     1
 10
-73.3327095258527
 20
128.1729400432736
 11
-73.3327095258527
 21
125.1729400432736
 72
     1
 10
-73.3327095258527
 20
125.1729400432736
 11
-74.5327095258527
 21
125.1729400432736
 72
     1
 10
-74.5327095258527
 20
125.1729400432736
 11
-74.5327095258527
 21
122.172940043274
 72
     1
 10
-74.5327095258527
 20
122.172940043274
 11
-73.7827095258527
 21
122.172940043274
 72
     1
 10
-73.7827095258527
 20
122.172940043274
 11
-73.7827095258527
 21
119.172940043274
 72
     2
 10
-71.5327095258527
 20
119.1729400432739
 40
2.25
 50
179.9999999999975
 51
270.0
 73
     1
 72
     1
 10
-71.5327095258527
 20
116.922940043274
 11
-67.0327095258527
 21
116.922940043274
 72
     1
 10
-67.0327095258527
 20
116.922940043274
 11
-67.0327095258527
 21
116.172940043274
 72
     1
 10
-67.0327095258527
 20
116.172940043274
 11
-61.0327095258527
 21
116.1729400432742
 72
     1
 10
-61.0327095258527
 20
116.1729400432742
 11
-61.0327095258527
 21
116.9229400432742
 72
     1
 10
-61.0327095258527
 20
116.9229400432742
 11
-56.5327095258527
 21
116.922940043274
 72
     2
 10
-56.5327095258527
 20
119.172940043274
 40
2.25
 50
270.0
 51
360.0
 73
     1
 72
     1
 10
-54.2827095258527
 20
119.172940043274
 11
-54.2827095258527
 21
122.1729400432742
 72
     1
 10
-54.2827095258527
 20
122.1729400432742
 11
-53.5327095258527
 21
122.1729400432742
 72
     1
 10
-53.5327095258527
 20
122.1729400432742
 11
-53.5327095258527
 21
125.1729400432736
 72
     1
 10
-53.5327095258527
 20
125.1729400432736
 11
-54.73270952585274
 21
125.1729400432736
 72
     1
 10
-54.73270952585274
 20
125.1729400432736
 11
-54.73270952585274
 21
128.1729400432736
 72
     1
 10
-54.73270952585274
 20
128.1729400432736
 11
-53.5327095258527
 21
128.1729400432736
 72
     1
 10
-53.5327095258527
 20
128.1729400432736
 11
-53.5327095258527
 21
131.172940043274
 72
     1
 10
-53.5327095258527
 20
131.172940043274
 11
-54.2827095258527
 21
131.172940043274
 72
     1
 10
-54.2827095258527
 20
131.172940043274
 11
-54.2827095258527
 21
134.172940043274
 97
       32
330
2D9
330
23A
330
23B
330
239
330
238
330
231
330
2D5
330
228
330
229
330
22B
330
22E
330
22F
330
22D
330
22A
330
22C
330
227
330
2D4
330
232
330
236
330
234
330
235
330
233
330
2D7
330
21A
330
224
330
225
330
220
330
21C
330
221
330
223
330
222
330
21B
 75
     0
 76
     1
 98
        1
 10
0.0
 20
0.0
  0
HATCH
  5
36D
330
1F
100
AcDbEntity
  8
1
  6
Continuous
 62
     7
100
AcDbHatch
 10
0.0
 20
0.0
 30
0.0
210
0.0
220
0.0
230
1.0
  2
SOLID
 70
     1
 71
     1
 91
        1
 92
        1
 93
        5
 72
     2
 10
-11.16184965562866
 20
7.07663469546833
 40
0.1666666666666305
 50
0.0
 51
180.0
 73
     1
 72
     1
 10
-11.32851632229534
 20
7.07663469546833
 11
-11.32851632229534
 21
5.423365304531615
 72
     2
 10
-11.16184965562866
 20
5.423365304531615
 40
0.1666666666666785
 50
180.0
 51
360.0
 73
     1
 72
     1
 10
-10.99518298896203
 20
5.423365304531615
 11
-10.99518298896203
 21
5.51962595863165
 72
     1
 10
-10.99518298896203
 20
5.51962595863165
 11
-10.99518298896203
 21
7.07663469546833
 97
        5
330
2E5
330
26E
330
2E6
330
26D
330
26C
 75
     0
 76
     1
 98
        1
 10
0.0
 20
0.0
  0
HATCH
  5
36E
330
1F
100
AcDbEntity
  8
1
  6
Continuous
 62
     7
100
AcDbHatch
 10
0.0
 20
0.0
 30
0.0
210
0.0
220
0.0
230
1.0
  2
SOLID
 70
     1
 71
     1
 91
        1
 92
        1
 93
       16
 72
     2
 10
-8.460999428533
 20
7.865608656017285
 40
0.1324831062376557
 50
210.0000000000258
 51
360.0
 73
     0
 72
     1
 10
-8.328516322295345
 20
7.865608656017285
 11
-8.328516322295345
 21
4.654134535300898
 72
     2
 10
-8.49518298896197
 20
4.654134535300898
 40
0.1666666666666856
 50
0.0
 51
180.0
 73
     0
 72
     1
 10
-8.661849655628655
 20
4.654134535300898
 11
-8.661849655628655
 21
6.25
 72
     1
 10
-8.661849655628655
 20
6.25
 11
-8.661849655628655
 21
7.11602540378442
 72
     1
 10
-8.661849655628655
 20
7.11602540378442
 11
-9.089680871979965
 21
6.375
 72
     2
 10
-9.161849655628655
 20
6.41666666666663
 40
0.0833333333333545
 50
29.99999999998236
 51
150.0000000000378
 73
     0
 72
     1
 10
-9.234018439277405
 20
6.375
 11
-9.661849655628655
 21
7.11602540378442
 72
     1
 10
-9.661849655628655
 20
7.11602540378442
 11
-9.661849655628655
 21
6.25
 72
     1
 10
-9.661849655628655
 20
6.25
 11
-9.661849655628655
 21
5.423792536316455
 72
     2
 10
-9.828516322295345
 20
5.423792536316455
 40
0.1666666666666856
 50
0.0
 51
180.0
 73
     0
 72
     1
 10
-9.99518298896203
 20
5.423792536316455
 11
-9.99518298896203
 21
6.25
 72
     1
 10
-9.99518298896203
 20
6.25
 11
-9.99518298896203
 21
7.865608656017285
 72
     2
 10
-9.86269988272437
 20
7.865608656017285
 40
0.1324831062376642
 50
180.0
 51
329.9999999999862
 73
     0
 72
     1
 10
-9.747966147150295
 20
7.931850209136145
 11
-9.161849655628655
 21
6.91666666666663
 72
     1
 10
-9.161849655628655
 20
6.91666666666663
 11
-8.57573316410702
 21
7.931850209136145
 97
       16
330
262
330
2DF
330
261
330
263
330
2E0
330
264
330
25C
330
25B
330
329
330
25A
330
259
330
265
330
2E1
330
266
330
2E2
330
267
 75
     0
 76
     1
 98
        1
 10
0.0
 20
0.0
  0
HATCH
  5
36F
330
1F
100
AcDbEntity
  8
1
  6
Continuous
 62
     7
100
AcDbHatch
 10
0.0
 20
0.0
 30
0.0
210
0.0
220
0.0
230
1.0
  2
SOLID
 70
     1
 71
     1
 91
        1
 92
        1
 93
        7
 72
     2
 10
-10.49518298896203
 20
7.461250080083685
 40
0.1666666666666909
 50
0.0
 51
180.0
 73
     1
 72
     1
 10
-10.66184965562866
 20
7.461250080083685
 11
-10.66184965562866
 21
5.13501057401629
 72
     2
 10
-10.32851632229534
 20
5.13501057401635
 40
0.3333333333333215
 50
180.0000000000104
 51
240.0183606311564
 73
     1
 72
     1
 10
-10.49509047345851
 20
4.846282045333453
 11
-9.41180339787695
 21
4.221308732497903
 72
     2
 10
-9.328516322295345
 20
4.365672996839351
 40
0.1666666666666837
 50
240.0183606311504
 51
420.0183606311494
 73
     1
 72
     1
 10
-9.245229246713736
 20
4.510037261180798
 11
-10.32851632229534
 21
5.13501057401635
 72
     1
 10
-10.32851632229534
 20
5.13501057401635
 11
-10.32851632229534
 21
7.461250080083685
 97
        7
330
2E3
330
268
330
32A
330
26B
330
2E4
330
26A
330
269
 75
     0
 76
     1
 98
        1
 10
0.0
 20
0.0
  0
HATCH
  5
370
330
1F
100
AcDbEntity
  8
1
  6
Continuous
 62
     7
100
AcDbHatch
 10
0.0
 20
0.0
 30
0.0
210
0.0
220
0.0
230
1.0
  2
SOLID
 70
     1
 71
     1
 91
        1
 92
        1
 93
       14
 72
     2
 10
-7.828516322295345
 20
7.461250080083685
 40
0.1666666666666874
 50
60.01836063114941
 51
180.0
 73
     1
 72
     1
 10
-7.99518298896197
 20
7.461250080083685
 11
-7.99518298896197
 21
5.038749919916315
 72
     2
 10
-7.828516322295345
 20
5.038749919916315
 40
0.1666666666666252
 50
180.0
 51
299.9816393688506
 73
     1
 72
     1
 10
-7.745229246713735
 20
4.894385655574865
 11
-7.078562580047105
 21
5.279001040190165
 72
     2
 10
-7.161849655628655
 20
5.423365304531615
 40
0.1666666666666572
 50
299.9816393688326
 51
479.9816393688413
 73
     1
 72
     1
 10
-7.245136731210265
 20
5.56772956887312
 11
-7.661849655628655
 21
5.32731826632397
 72
     1
 10
-7.661849655628655
 20
5.32731826632397
 11
-7.661849655628655
 21
6.083333333333315
 72
     1
 10
-7.661849655628655
 20
6.083333333333315
 11
-7.161849655628655
 21
6.083333333333315
 72
     2
 10
-7.161849655628655
 20
6.25
 40
0.1666666666666847
 50
270.0
 51
450.0
 73
     1
 72
     1
 10
-7.161849655628655
 20
6.41666666666663
 11
-7.661849655628655
 21
6.41666666666663
 72
     1
 10
-7.661849655628655
 20
6.41666666666663
 11
-7.661849655628655
 21
7.17268173367597
 72
     1
 10
-7.661849655628655
 20
7.17268173367597
 11
-7.245136731210265
 21
6.93227043112688
 72
     2
 10
-7.161849655628655
 20
7.07663469546833
 40
0.1666666666666886
 50
240.0183606311493
 51
420.0183606311572
 73
     1
 72
     1
 10
-7.078562580047105
 20
7.22099895980972
 11
-7.745229246713735
 21
7.605614344425135
 97
       14
330
32D
330
277
330
32E
330
276
330
2E9
330
275
330
274
330
273
330
2E8
330
272
330
271
330
270
330
2E7
330
26F
 75
     0
 76
     1
 98
        1
 10
0.0
 20
0.0
  0
HATCH
  5
371
330
1F
100
AcDbEntity
  8
1
  6
Continuous
 62
     2
100
AcDbHatch
 10
0.0
 20
0.0
 30
0.0
210
0.0
220
0.0
230
1.0
  2
SOLID
 70
     1
 71
     1
 91
        1
 92
        1
 93
       26
 72
     2
 10
-56.0327095258527
 20
46.47294004327394
 40
4.0
 50
0.0
 51
90.0
 73
     1
 72
     1
 10
-56.0327095258527
 20
50.47294004327394
 11
-72.03270952585281
 21
50.47294004327394
 72
     2
 10
-72.03270952585281
 20
46.47294004327394
 40
4.0
 50
90.0
 51
180.0
 73
     1
 72
     1
 10
-76.03270952585281
 20
46.47294004327394
 11
-76.0327095258527
 21
30.47294004327387
 72
     2
 10
-72.0327095258527
 20
30.47294004327387
 40
4.0
 50
180.0
 51
270.0
 73
     1
 72
     1
 10
-72.0327095258527
 20
26.47294004327387
 11
-65.51617393953683
 21
26.47294004327387
 72
     2
 10
-64.03270952585268
 20
31.87460670994242
 40
5.601666666668537
 50
105.3565867633152
 51
119.9901582583411
 73
     0
 72
     1
 10
-66.83270952585269
 20
27.0229400432736
 11
-66.83270952585269
 21
27.37294004327362
 72
     1
 10
-66.83270952585269
 20
27.37294004327362
 11
-66.2327095258524
 21
27.9729400432739
 72
     1
 10
-66.2327095258524
 20
27.9729400432739
 11
-68.83270952585265
 21
27.9729400432739
 72
     1
 10
-68.83270952585265
 20
27.9729400432739
 11
-71.5327095258527
 21
27.9729400432739
 72
     2
 10
-71.5327095258527
 20
30.9729400432739
 40
3.0
 50
90.0
 51
180.0
 73
     0
 72
     1
 10
-74.5327095258527
 20
30.9729400432739
 11
-74.5327095258527
 21
45.9729400432739
 72
     2
 10
-71.5327095258527
 20
45.9729400432739
 40
3.0
 50
180.0
 51
270.0
 73
     0
 72
     1
 10
-71.5327095258527
 20
48.9729400432739
 11
-56.5327095258527
 21
48.9729400432739
 72
     2
 10
-56.5327095258527
 20
45.9729400432739
 40
3.0
 50
270.0
 51
360.0
 73
     0
 72
     1
 10
-53.5327095258527
 20
45.9729400432739
 11
-53.5327095258527
 21
30.9729400432739
 72
     2
 10
-56.5327095258527
 20
30.9729400432739
 40
3.0
 50
0.0
 51
90.0
 73
     0
 72
     1
 10
-56.5327095258527
 20
27.9729400432739
 11
-59.23270952585268
 21
27.9729400432739
 72
     1
 10
-59.23270952585268
 20
27.9729400432739
 11
-61.83270952585297
 21
27.9729400432739
 72
     1
 10
-61.83270952585297
 20
27.9729400432739
 11
-61.23270952585268
 21
27.37294004327362
 72
     1
 10
-61.23270952585268
 20
27.37294004327362
 11
-61.23270952585268
 21
27.0229400432736
 72
     2
 10
-64.03270952585268
 20
31.87460670994242
 40
5.601666666668533
 50
60.00984174165898
 51
74.64341323668485
 73
     0
 72
     1
 10
-62.54924511216854
 20
26.47294004327387
 11
-56.0327095258527
 21
26.47294004327387
 72
     2
 10
-56.0327095258527
 20
30.47294004327387
 40
4.0
 50
270.0
 51
360.0
 73
     1
 72
     1
 10
-52.0327095258527
 20
30.47294004327387
 11
-52.0327095258527
 21
46.47294004327394
 97
       26
330
314
330
60
330
311
330
5D
330
312
330
5E
330
2EB
330
2A3
330
2AA
330
2A8
330
CD
330
2C7
330
D6
330
2CA
330
C8
330
2C9
330
D7
330
2C8
330
CE
330
80
330
29B
330
2A1
330
2EA
330
2AB
330
313
330
5F
 75
     0
 76
     1
 98
        1
 10
0.0
 20
0.0
  0
ENDSEC
  0
SECTION
  2
OBJECTS
  0
DICTIONARY
  5
C
330
0
100
AcDbDictionary
281
     1
  3
ACAD_GROUP
350
D
  3
ACAD_LAYOUT
350
1A
  3
ACAD_MATERIAL
350
3B
  3
ACAD_MLEADERSTYLE
350
374
  3
ACAD_MLINESTYLE
350
17
  3
ACAD_PLOTSETTINGS
350
19
  3
ACAD_PLOTSTYLENAME
350
E
  3
ACAD_VISUALSTYLE
350
2A
  3
AcDbVariableDictionary
350
372
  0
DICTIONARY
  5
D
102
{ACAD_REACTORS
330
C
102
}
330
C
100
AcDbDictionary
281
     1
  0
DICTIONARY
  5
1A
102
{ACAD_REACTORS
330
C
102
}
330
C
100
AcDbDictionary
281
     1
  3
Layout1
350
1E
  3
Layout2
350
26
  3
Model
350
22
  0
DICTIONARY
  5
3B
102
{ACAD_REACTORS
330
C
102
}
330
C
100
AcDbDictionary
281
     1
  3
ByBlock
350
3D
  3
ByLayer
350
3C
  3
Global
350
3E
  0
DICTIONARY
  5
374
102
{ACAD_REACTORS
330
C
102
}
330
C
100
AcDbDictionary
281
     1
  0
DICTIONARY
  5
17
102
{ACAD_REACTORS
330
C
102
}
330
C
100
AcDbDictionary
281
     1
  3
Standard
350
18
  0
DICTIONARY
  5
19
102
{ACAD_REACTORS
330
C
102
}
330
C
100
AcDbDictionary
281
     1
  0
ACDBDICTIONARYWDFLT
  5
E
102
{ACAD_REACTORS
330
C
102
}
330
C
100
AcDbDictionary
281
     1
  3
Normal
350
F
100
AcDbDictionaryWithDefault
340
F
  0
DICTIONARY
  5
2A
102
{ACAD_REACTORS
330
C
102
}
330
C
100
AcDbDictionary
281
     1
  3
2dWireframe
350
2F
  3
3D Hidden
350
31
  3
3dWireframe
350
30
  3
Basic
350
32
  3
Brighten
350
36
  3
ColorChange
350
3A
  3
Conceptual
350
34
  3
Dim
350
35
  3
Facepattern
350
39
  3
Flat
350
2B
  3
FlatWithEdges
350
2C
  3
Gouraud
350
2D
  3
GouraudWithEdges
350
2E
  3
Linepattern
350
38
  3
Realistic
350
33
  3
Thicken
350
37
  0
DICTIONARY
  5
372
102
{ACAD_REACTORS
330
C
102
}
330
C
100
AcDbDictionary
281
     1
  3
DIMASSOC
350
375
  3
HIDETEXT
350
376
  0
LAYOUT
  5
1E
102
{ACAD_REACTORS
330
1A
102
}
330
1A
100
AcDbPlotSettings
  1

  2
none_device
  4

  6

 40
0.0
 41
0.0
 42
0.0
 43
0.0
 44
0.0
 45
0.0
 46
0.0
 47
0.0
 48
0.0
 49
0.0
140
0.0
141
0.0
142
1.0
143
1.0
 70
   688
 72
     0
 73
     0
 74
     5
  7

 75
    16
147
1.0
148
0.0
149
0.0
100
AcDbLayout
  1
Layout1
 70
     1
 71
     1
 10
0.0
 20
0.0
 11
12.0
 21
9.0
 12
0.0
 22
0.0
 32
0.0
 14
1.00000000000000E+20
 24
1.00000000000000E+20
 34
1.00000000000000E+20
 15
-1.00000000000000E+20
 25
-1.00000000000000E+20
 35
-1.00000000000000E+20
146
0.0
 13
0.0
 23
0.0
 33
0.0
 16
1.0
 26
0.0
 36
0.0
 17
0.0
 27
1.0
 37
0.0
 76
     0
330
1B
  0
LAYOUT
  5
26
102
{ACAD_REACTORS
330
1A
102
}
330
1A
100
AcDbPlotSettings
  1

  2
none_device
  4

  6

 40
0.0
 41
0.0
 42
0.0
 43
0.0
 44
0.0
 45
0.0
 46
0.0
 47
0.0
 48
0.0
 49
0.0
140
0.0
141
0.0
142
1.0
143
1.0
 70
   688
 72
     0
 73
     0
 74
     5
  7

 75
    16
147
1.0
148
0.0
149
0.0
100
AcDbLayout
  1
Layout2
 70
     1
 71
     2
 10
0.0
 20
0.0
 11
0.0
 21
0.0
 12
0.0
 22
0.0
 32
0.0
 14
0.0
 24
0.0
 34
0.0
 15
0.0
 25
0.0
 35
0.0
146
0.0
 13
0.0
 23
0.0
 33
0.0
 16
1.0
 26
0.0
 36
0.0
 17
0.0
 27
1.0
 37
0.0
 76
     0
330
23
  0
LAYOUT
  5
22
102
{ACAD_REACTORS
330
1A
102
}
330
1A
100
AcDbPlotSettings
  1

  2
none_device
  4

  6

 40
0.0
 41
0.0
 42
0.0
 43
0.0
 44
0.0
 45
0.0
 46
0.0
 47
0.0
 48
0.0
 49
0.0
140
0.0
141
0.0
142
1.0
143
1.0
 70
  1712
 72
     0
 73
     0
 74
     0
  7

 75
     0
147
1.0
148
0.0
149
0.0
100
AcDbLayout
  1
Model
 70
     1
 71
     0
 10
0.0
 20
0.0
 11
12.0
 21
9.0
 12
0.0
 22
0.0
 32
0.0
 14
-105.0000000000001
 24
0.0
 34
0.0
 15
0.0
 25
148.5000000000001
 35
0.0
146
0.0
 13
0.0
 23
0.0
 33
0.0
 16
1.0
 26
0.0
 36
0.0
 17
0.0
 27
1.0
 37
0.0
 76
     0
330
1F
331
29
  0
MATERIAL
  5
3D
102
{ACAD_REACTORS
330
3B
102
}
102
{ACAD_XDICTIONARY
360
399
102
}
330
3B
100
AcDbMaterial
  1
ByBlock
  0
MATERIAL
  5
3C
102
{ACAD_REACTORS
330
3B
102
}
102
{ACAD_XDICTIONARY
360
397
102
}
330
3B
100
AcDbMaterial
  1
ByLayer
  0
MATERIAL
  5
3E
102
{ACAD_REACTORS
330
3B
102
}
102
{ACAD_XDICTIONARY
360
39B
102
}
330
3B
100
AcDbMaterial
  1
Global
  0
MLINESTYLE
  5
18
102
{ACAD_REACTORS
330
17
102
}
330
17
100
AcDbMlineStyle
  2
Standard
 70
     0
  3

 62
   256
 51
90.0
 52
90.0
 71
     2
 49
0.5
 62
   256
  6
BYLAYER
 49
-0.5
 62
   256
  6
BYLAYER
  0
ACDBPLACEHOLDER
  5
F
102
{ACAD_REACTORS
330
E
102
}
330
E
  0
VISUALSTYLE
  5
2F
102
{ACAD_REACTORS
330
2A
102
}
102
{ACAD_XDICTIONARY
360
37F
102
}
330
2A
100
AcDbVisualStyle
  2
2dWireframe
 70
     4
 71
     0
 72
     2
 73
     0
 90
        0
 40
-0.6
 41
-30.0
 62
     5
 63
     7
 74
     1
 91
        4
 64
     7
 65
   257
 75
     1
175
     1
 42
1.0
 92
        0
 66
   257
 43
1.0
 76
     1
 77
     6
 78
     2
 67
     7
 79
     5
170
     0
171
     0
290
     0
174
     0
 93
        1
 44
0.0
173
     0
291
     0
 45
0.0
1001
ACAD
1000
AcDbSavedByObjectVersion
1070
     0
  0
VISUALSTYLE
  5
31
102
{ACAD_REACTORS
330
2A
102
}
102
{ACAD_XDICTIONARY
360
383
102
}
330
2A
100
AcDbVisualStyle
  2
3D Hidden
 70
     6
 71
     1
 72
     2
 73
     2
 90
        0
 40
-0.6
 41
-30.0
 62
     5
 63
     7
 74
     2
 91
        2
 64
     7
 65
   257
 75
     2
175
     1
 42
40.0
 92
        0
 66
   257
 43
1.0
 76
     1
 77
     6
 78
     2
 67
     7
 79
     3
170
     0
171
     0
290
     0
174
     0
 93
        1
 44
0.0
173
     0
291
     0
 45
0.0
1001
ACAD
1000
AcDbSavedByObjectVersion
1070
     0
  0
VISUALSTYLE
  5
30
102
{ACAD_REACTORS
330
2A
102
}
102
{ACAD_XDICTIONARY
360
381
102
}
330
2A
100
AcDbVisualStyle
  2
3dWireframe
 70
     5
 71
     0
 72
     2
 73
     0
 90
        0
 40
-0.6
 41
-30.0
 62
     5
 63
     7
 74
     1
 91
        4
 64
     7
 65
   257
 75
     1
175
     1
 42
1.0
 92
        0
 66
   257
 43
1.0
 76
     1
 77
     6
 78
     2
 67
     7
 79
     5
170
     0
171
     0
290
     0
174
     0
 93
        1
 44
0.0
173
     0
291
     0
 45
0.0
1001
ACAD
1000
AcDbSavedByObjectVersion
1070
     0
  0
VISUALSTYLE
  5
32
102
{ACAD_REACTORS
330
2A
102
}
102
{ACAD_XDICTIONARY
360
385
102
}
330
2A
100
AcDbVisualStyle
  2
Basic
 70
     7
 71
     1
 72
     0
 73
     1
 90
        0
 40
-0.6
 41
-30.0
 62
     5
 63
     7
 74
     0
 91
        4
 64
     7
 65
   257
 75
     1
175
     1
 42
1.0
 92
        8
 66
     7
 43
1.0
 76
     1
 77
     6
 78
     2
 67
     7
 79
     5
170
     0
171
     0
290
     0
174
     0
 93
        1
 44
0.0
173
     0
291
     1
 45
0.0
1001
ACAD
1000
AcDbSavedByObjectVersion
1070
     0
  0
VISUALSTYLE
  5
36
102
{ACAD_REACTORS
330
2A
102
}
102
{ACAD_XDICTIONARY
360
38D
102
}
330
2A
100
AcDbVisualStyle
  2
Brighten
 70
    12
 71
     2
 72
     2
 73
     0
 90
        0
 40
-0.6
 41
-30.0
 62
     5
 63
     7
 74
     1
 91
        4
 64
     7
 65
   257
 75
     1
175
     1
 42
1.0
 92
        8
 66
     7
 43
1.0
 76
     1
 77
     6
 78
     2
 67
     7
 79
     5
170
     0
171
     0
290
     0
174
     0
 93
        1
 44
50.0
173
     0
291
     1
 45
0.0
1001
ACAD
1000
AcDbSavedByObjectVersion
1070
     0
  0
VISUALSTYLE
  5
3A
102
{ACAD_REACTORS
330
2A
102
}
102
{ACAD_XDICTIONARY
360
395
102
}
330
2A
100
AcDbVisualStyle
  2
ColorChange
 70
    16
 71
     2
 72
     2
 73
     3
 90
        0
 40
-0.6
 41
-30.0
 62
     5
 63
     8
 74
     1
 91
        4
 64
     7
 65
   257
 75
     1
175
     1
 42
1.0
 92
        8
 66
     8
 43
1.0
 76
     1
 77
     6
 78
     2
 67
     7
 79
     5
170
     0
171
     0
290
     0
174
     0
 93
        1
 44
0.0
173
     0
291
     1
 45
0.0
1001
ACAD
1000
AcDbSavedByObjectVersion
1070
     0
  0
VISUALSTYLE
  5
34
102
{ACAD_REACTORS
330
2A
102
}
102
{ACAD_XDICTIONARY
360
389
102
}
330
2A
100
AcDbVisualStyle
  2
Conceptual
 70
     9
 71
     3
 72
     2
 73
     0
 90
        0
 40
-0.6
 41
-30.0
 62
     5
 63
     7
 74
     2
 91
        2
 64
     7
 65
   257
 75
     1
175
     1
 42
40.0
 92
        8
 66
     7
 43
1.0
 76
     1
 77
     6
 78
     2
 67
     7
 79
     3
170
     0
171
     0
290
     0
174
     0
 93
        1
 44
0.0
173
     0
291
     0
 45
0.0
1001
ACAD
1000
AcDbSavedByObjectVersion
1070
     0
  0
VISUALSTYLE
  5
35
102
{ACAD_REACTORS
330
2A
102
}
102
{ACAD_XDICTIONARY
360
38B
102
}
330
2A
100
AcDbVisualStyle
  2
Dim
 70
    11
 71
     2
 72
     2
 73
     0
 90
        0
 40
-0.6
 41
-30.0
 62
     5
 63
     7
 74
     1
 91
        4
 64
     7
 65
   257
 75
     1
175
     1
 42
1.0
 92
        8
 66
     7
 43
1.0
 76
     1
 77
     6
 78
     2
 67
     7
 79
     5
170
     0
171
     0
290
     0
174
     0
 93
        1
 44
-50.0
173
     0
291
     1
 45
0.0
1001
ACAD
1000
AcDbSavedByObjectVersion
1070
     0
  0
VISUALSTYLE
  5
39
102
{ACAD_REACTORS
330
2A
102
}
102
{ACAD_XDICTIONARY
360
393
102
}
330
2A
100
AcDbVisualStyle
  2
Facepattern
 70
    15
 71
     2
 72
     2
 73
     0
 90
        0
 40
-0.6
 41
-30.0
 62
     5
 63
     7
 74
     1
 91
        4
 64
     7
 65
   257
 75
     1
175
     1
 42
1.0
 92
        8
 66
     7
 43
1.0
 76
     1
 77
     6
 78
     2
 67
     7
 79
     5
170
     0
171
     0
290
     0
174
     0
 93
        1
 44
0.0
173
     0
291
     1
 45
0.0
1001
ACAD
1000
AcDbSavedByObjectVersion
1070
     0
  0
VISUALSTYLE
  5
2B
102
{ACAD_REACTORS
330
2A
102
}
102
{ACAD_XDICTIONARY
360
377
102
}
330
2A
100
AcDbVisualStyle
  2
Flat
 70
     0
 71
     2
 72
     1
 73
     1
 90
        2
 40
-0.6
 41
30.0
 62
     5
 63
     7
 74
     0
 91
        4
 64
     7
 65
   257
 75
     1
175
     1
 42
1.0
 92
        8
 66
     7
 43
1.0
 76
     1
 77
     6
 78
     2
 67
     7
 79
     5
170
     0
171
     0
290
     0
174
     0
 93
       13
 44
0.0
173
     0
291
     1
 45
0.0
1001
ACAD
1000
AcDbSavedByObjectVersion
1070
     0
  0
VISUALSTYLE
  5
2C
102
{ACAD_REACTORS
330
2A
102
}
102
{ACAD_XDICTIONARY
360
379
102
}
330
2A
100
AcDbVisualStyle
  2
FlatWithEdges
 70
     1
 71
     2
 72
     1
 73
     1
 90
        2
 40
-0.6
 41
30.0
 62
     5
 63
     7
 74
     1
 91
        4
 64
     7
 65
   257
 75
     1
175
     1
 42
1.0
 92
        0
 66
   257
 43
1.0
 76
     1
 77
     6
 78
     2
 67
     7
 79
     5
170
     0
171
     0
290
     0
174
     0
 93
       13
 44
0.0
173
     0
291
     1
 45
0.0
1001
ACAD
1000
AcDbSavedByObjectVersion
1070
     0
  0
VISUALSTYLE
  5
2D
102
{ACAD_REACTORS
330
2A
102
}
102
{ACAD_XDICTIONARY
360
37B
102
}
330
2A
100
AcDbVisualStyle
  2
Gouraud
 70
     2
 71
     2
 72
     2
 73
     1
 90
        2
 40
-0.6
 41
30.0
 62
     5
 63
     7
 74
     0
 91
        4
 64
     7
 65
   257
 75
     1
175
     1
 42
1.0
 92
        0
 66
     7
 43
1.0
 76
     1
 77
     6
 78
     2
 67
     7
 79
     5
170
     0
171
     0
290
     0
174
     0
 93
       13
 44
0.0
173
     0
291
     1
 45
0.0
1001
ACAD
1000
AcDbSavedByObjectVersion
1070
     0
  0
VISUALSTYLE
  5
2E
102
{ACAD_REACTORS
330
2A
102
}
102
{ACAD_XDICTIONARY
360
37D
102
}
330
2A
100
AcDbVisualStyle
  2
GouraudWithEdges
 70
     3
 71
     2
 72
     2
 73
     1
 90
        2
 40
-0.6
 41
30.0
 62
     5
 63
     7
 74
     1
 91
        4
 64
     7
 65
   257
 75
     1
175
     1
 42
1.0
 92
        0
 66
   257
 43
1.0
 76
     1
 77
     6
 78
     2
 67
     7
 79
     5
170
     0
171
     0
290
     0
174
     0
 93
       13
 44
0.0
173
     0
291
     1
 45
0.0
1001
ACAD
1000
AcDbSavedByObjectVersion
1070
     0
  0
VISUALSTYLE
  5
38
102
{ACAD_REACTORS
330
2A
102
}
102
{ACAD_XDICTIONARY
360
391
102
}
330
2A
100
AcDbVisualStyle
  2
Linepattern
 70
    14
 71
     2
 72
     2
 73
     0
 90
        0
 40
-0.6
 41
-30.0
 62
     5
 63
     7
 74
     1
 91
        4
 64
     7
 65
   257
 75
     7
175
     7
 42
1.0
 92
        8
 66
     7
 43
1.0
 76
     1
 77
     6
 78
     2
 67
     7
 79
     5
170
     0
171
     0
290
     0
174
     0
 93
        1
 44
0.0
173
     0
291
     1
 45
0.0
1001
ACAD
1000
AcDbSavedByObjectVersion
1070
     0
  0
VISUALSTYLE
  5
33
102
{ACAD_REACTORS
330
2A
102
}
102
{ACAD_XDICTIONARY
360
387
102
}
330
2A
100
AcDbVisualStyle
  2
Realistic
 70
     8
 71
     2
 72
     2
 73
     0
 90
        0
 40
-0.6
 41
-30.0
 62
     5
 63
     7
 74
     1
 91
        0
 64
     7
 65
   257
 75
     1
175
     1
 42
1.0
 92
        8
 66
     8
 43
1.0
 76
     1
 77
     6
 78
     2
 67
     7
 79
     5
170
     0
171
     0
290
     0
174
     0
 93
       13
 44
0.0
173
     0
291
     0
 45
0.0
1001
ACAD
1000
AcDbSavedByObjectVersion
1070
     0
  0
VISUALSTYLE
  5
37
102
{ACAD_REACTORS
330
2A
102
}
102
{ACAD_XDICTIONARY
360
38F
102
}
330
2A
100
AcDbVisualStyle
  2
Thicken
 70
    13
 71
     2
 72
     2
 73
     0
 90
        0
 40
-0.6
 41
-30.0
 62
     5
 63
     7
 74
     1
 91
        4
 64
     7
 65
   257
 75
     1
175
     1
 42
1.0
 92
       12
 66
     7
 43
1.0
 76
     1
 77
     6
 78
     2
 67
     7
 79
     5
170
     0
171
     0
290
     0
174
     0
 93
        1
 44
0.0
173
     0
291
     1
 45
0.0
1001
ACAD
1000
AcDbSavedByObjectVersion
1070
     0
  0
DICTIONARYVAR
  5
375
102
{ACAD_REACTORS
330
372
102
}
330
372
100
DictionaryVariables
280
     0
  1
2
  0
DICTIONARYVAR
  5
376
102
{ACAD_REACTORS
330
372
102
}
330
372
100
DictionaryVariables
280
     0
  1
1
  0
DICTIONARY
  5
399
330
3D
100
AcDbDictionary
280
     1
281
     1
  3
ACAD_XREC_ROUNDTRIP
360
39A
  0
DICTIONARY
  5
397
330
3C
100
AcDbDictionary
280
     1
281
     1
  3
ACAD_XREC_ROUNDTRIP
360
398
  0
DICTIONARY
  5
39B
330
3E
100
AcDbDictionary
280
     1
281
     1
  3
ACAD_XREC_ROUNDTRIP
360
39C
  0
DICTIONARY
  5
37F
330
2F
100
AcDbDictionary
280
     1
281
     1
  3
ACAD_XREC_ROUNDTRIP
360
380
  0
DICTIONARY
  5
383
330
31
100
AcDbDictionary
280
     1
281
     1
  3
ACAD_XREC_ROUNDTRIP
360
384
  0
DICTIONARY
  5
381
330
30
100
AcDbDictionary
280
     1
281
     1
  3
ACAD_XREC_ROUNDTRIP
360
382
  0
DICTIONARY
  5
385
330
32
100
AcDbDictionary
280
     1
281
     1
  3
ACAD_XREC_ROUNDTRIP
360
386
  0
DICTIONARY
  5
38D
330
36
100
AcDbDictionary
280
     1
281
     1
  3
ACAD_XREC_ROUNDTRIP
360
38E
  0
DICTIONARY
  5
395
330
3A
100
AcDbDictionary
280
     1
281
     1
  3
ACAD_XREC_ROUNDTRIP
360
396
  0
DICTIONARY
  5
389
330
34
100
AcDbDictionary
280
     1
281
     1
  3
ACAD_XREC_ROUNDTRIP
360
38A
  0
DICTIONARY
  5
38B
330
35
100
AcDbDictionary
280
     1
281
     1
  3
ACAD_XREC_ROUNDTRIP
360
38C
  0
DICTIONARY
  5
393
330
39
100
AcDbDictionary
280
     1
281
     1
  3
ACAD_XREC_ROUNDTRIP
360
394
  0
DICTIONARY
  5
377
330
2B
100
AcDbDictionary
280
     1
281
     1
  3
ACAD_XREC_ROUNDTRIP
360
378
  0
DICTIONARY
  5
379
330
2C
100
AcDbDictionary
280
     1
281
     1
  3
ACAD_XREC_ROUNDTRIP
360
37A
  0
DICTIONARY
  5
37B
330
2D
100
AcDbDictionary
280
     1
281
     1
  3
ACAD_XREC_ROUNDTRIP
360
37C
  0
DICTIONARY
  5
37D
330
2E
100
AcDbDictionary
280
     1
281
     1
  3
ACAD_XREC_ROUNDTRIP
360
37E
  0
DICTIONARY
  5
391
330
38
100
AcDbDictionary
280
     1
281
     1
  3
ACAD_XREC_ROUNDTRIP
360
392
  0
DICTIONARY
  5
387
330
33
100
AcDbDictionary
280
     1
281
     1
  3
ACAD_XREC_ROUNDTRIP
360
388
  0
DICTIONARY
  5
38F
330
37
100
AcDbDictionary
280
     1
281
     1
  3
ACAD_XREC_ROUNDTRIP
360
390
  0
XRECORD
  5
39A
102
{ACAD_REACTORS
330
399
102
}
330
399
100
AcDbXrecord
280
     1
102
MATERIAL
148
0.0
149
0.0
149
0.0
 93
        0
 94
      127
282
     0
 72
     1
 77
     1
171
     1
175
     1
179
     1
273
     0
  0
XRECORD
  5
398
102
{ACAD_REACTORS
330
397
102
}
330
397
100
AcDbXrecord
280
     1
102
MATERIAL
148
0.0
149
0.0
149
0.0
 93
        0
 94
      127
282
     0
 72
     1
 77
     1
171
     1
175
     1
179
     1
273
     0
  0
XRECORD
  5
39C
102
{ACAD_REACTORS
330
39B
102
}
330
39B
100
AcDbXrecord
280
     1
102
MATERIAL
148
0.0
149
0.0
149
0.0
 93
        0
 94
      127
282
     0
 72
     1
 77
     1
171
     1
175
     1
179
     1
273
     0
  0
XRECORD
  5
380
102
{ACAD_REACTORS
330
37F
102
}
330
37F
100
AcDbXrecord
280
     1
102
RTVSPropertyOp0
 70
     1
102
RTVSPropertyOp1
 70
     1
102
RTVSPropertyOp2
 70
     1
102
RTVSPropertyOp3
 70
     1
102
RTVSPropertyOp4
 70
     1
102
RTVSPropertyOp5
 70
     1
102
RTVSPropertyOp6
 70
     1
102
RTVSPropertyOp7
 70
     1
102
RTVSPropertyOp8
 70
     1
102
RTVSPropertyOp9
 70
     1
102
RTVSPropertyOp10
 70
     1
102
RTVSPropertyOp11
 70
     1
102
RTVSPropertyOp12
 70
     1
102
RTVSPropertyOp13
 70
     1
102
RTVSPropertyOp14
 70
     1
102
RTVSPropertyOp15
 70
     1
102
RTVSPropertyOp16
 70
     1
102
RTVSPropertyOp17
 70
     1
102
RTVSPropertyOp18
 70
     1
102
RTVSPropertyOp19
 70
     1
102
RTVSPropertyOp20
 70
     1
102
RTVSPropertyOp21
 70
     1
102
RTVSPropertyOp22
 70
     1
102
RTVSPropertyOp23
 70
     1
102
RTVSPropertyOp24
 70
     1
102
RTVSPropertyOp25
 70
     1
102
RTVSPropertyOp26
 70
     1
102
RTVSPropertyOp27
 70
     1
102
RTVSPropertyOp28
 70
     1
102
RTVSPropertyOp29
 70
     1
102
RTVSPropertyOp30
 70
     1
102
RTVSPropertyOp31
 70
     1
102
RTVSPropertyOp32
 70
     1
  0
XRECORD
  5
384
102
{ACAD_REACTORS
330
383
102
}
330
383
100
AcDbXrecord
280
     1
102
RTVSPropertyOp0
 70
     1
102
RTVSPropertyOp1
 70
     1
102
RTVSPropertyOp2
 70
     1
102
RTVSPropertyOp3
 70
     1
102
RTVSPropertyOp4
 70
     1
102
RTVSPropertyOp5
 70
     1
102
RTVSPropertyOp6
 70
     1
102
RTVSPropertyOp7
 70
     1
102
RTVSPropertyOp8
 70
     1
102
RTVSPropertyOp9
 70
     1
102
RTVSPropertyOp10
 70
     1
102
RTVSPropertyOp11
 70
     1
102
RTVSPropertyOp12
 70
     1
102
RTVSPropertyOp13
 70
     1
102
RTVSPropertyOp14
 70
     1
102
RTVSPropertyOp15
 70
     1
102
RTVSPropertyOp16
 70
     1
102
RTVSPropertyOp17
 70
     1
102
RTVSPropertyOp18
 70
     1
102
RTVSPropertyOp19
 70
     1
102
RTVSPropertyOp20
 70
     1
102
RTVSPropertyOp21
 70
     1
102
RTVSPropertyOp22
 70
     1
102
RTVSPropertyOp23
 70
     1
102
RTVSPropertyOp24
 70
     1
102
RTVSPropertyOp25
 70
     1
102
RTVSPropertyOp26
 70
     1
102
RTVSPropertyOp27
 70
     1
102
RTVSPropertyOp28
 70
     1
102
RTVSPropertyOp29
 70
     1
102
RTVSPropertyOp30
 70
     1
102
RTVSPropertyOp31
 70
     1
102
RTVSPropertyOp32
 70
     1
  0
XRECORD
  5
382
102
{ACAD_REACTORS
330
381
102
}
330
381
100
AcDbXrecord
280
     1
102
RTVSPropertyOp0
 70
     1
102
RTVSPropertyOp1
 70
     1
102
RTVSPropertyOp2
 70
     1
102
RTVSPropertyOp3
 70
     1
102
RTVSPropertyOp4
 70
     1
102
RTVSPropertyOp5
 70
     1
102
RTVSPropertyOp6
 70
     1
102
RTVSPropertyOp7
 70
     1
102
RTVSPropertyOp8
 70
     1
102
RTVSPropertyOp9
 70
     1
102
RTVSPropertyOp10
 70
     1
102
RTVSPropertyOp11
 70
     1
102
RTVSPropertyOp12
 70
     1
102
RTVSPropertyOp13
 70
     1
102
RTVSPropertyOp14
 70
     1
102
RTVSPropertyOp15
 70
     1
102
RTVSPropertyOp16
 70
     1
102
RTVSPropertyOp17
 70
     1
102
RTVSPropertyOp18
 70
     1
102
RTVSPropertyOp19
 70
     1
102
RTVSPropertyOp20
 70
     1
102
RTVSPropertyOp21
 70
     1
102
RTVSPropertyOp22
 70
     1
102
RTVSPropertyOp23
 70
     1
102
RTVSPropertyOp24
 70
     1
102
RTVSPropertyOp25
 70
     1
102
RTVSPropertyOp26
 70
     1
102
RTVSPropertyOp27
 70
     1
102
RTVSPropertyOp28
 70
     1
102
RTVSPropertyOp29
 70
     1
102
RTVSPropertyOp30
 70
     1
102
RTVSPropertyOp31
 70
     1
102
RTVSPropertyOp32
 70
     1
  0
XRECORD
  5
386
102
{ACAD_REACTORS
330
385
102
}
330
385
100
AcDbXrecord
280
     1
102
RTVSPropertyOp0
 70
     1
102
RTVSPropertyOp1
 70
     1
102
RTVSPropertyOp2
 70
     1
102
RTVSPropertyOp3
 70
     1
102
RTVSPropertyOp4
 70
     1
102
RTVSPropertyOp5
 70
     1
102
RTVSPropertyOp6
 70
     1
102
RTVSPropertyOp7
 70
     1
102
RTVSPropertyOp8
 70
     1
102
RTVSPropertyOp9
 70
     1
102
RTVSPropertyOp10
 70
     1
102
RTVSPropertyOp11
 70
     1
102
RTVSPropertyOp12
 70
     1
102
RTVSPropertyOp13
 70
     1
102
RTVSPropertyOp14
 70
     1
102
RTVSPropertyOp15
 70
     1
102
RTVSPropertyOp16
 70
     1
102
RTVSPropertyOp17
 70
     1
102
RTVSPropertyOp18
 70
     1
102
RTVSPropertyOp19
 70
     1
102
RTVSPropertyOp20
 70
     1
102
RTVSPropertyOp21
 70
     1
102
RTVSPropertyOp22
 70
     1
102
RTVSPropertyOp23
 70
     1
102
RTVSPropertyOp24
 70
     1
102
RTVSPropertyOp25
 70
     1
102
RTVSPropertyOp26
 70
     1
102
RTVSPropertyOp27
 70
     1
102
RTVSPropertyOp28
 70
     1
102
RTVSPropertyOp29
 70
     1
102
RTVSPropertyOp30
 70
     1
102
RTVSPropertyOp31
 70
     1
102
RTVSPropertyOp32
 70
     1
  0
XRECORD
  5
38E
102
{ACAD_REACTORS
330
38D
102
}
330
38D
100
AcDbXrecord
280
     1
102
RTVSPropertyOp0
 70
     1
102
RTVSPropertyOp1
 70
     1
102
RTVSPropertyOp2
 70
     1
102
RTVSPropertyOp3
 70
     1
102
RTVSPropertyOp4
 70
     1
102
RTVSPropertyOp5
 70
     1
102
RTVSPropertyOp6
 70
     1
102
RTVSPropertyOp7
 70
     1
102
RTVSPropertyOp8
 70
     1
102
RTVSPropertyOp9
 70
     1
102
RTVSPropertyOp10
 70
     1
102
RTVSPropertyOp11
 70
     1
102
RTVSPropertyOp12
 70
     1
102
RTVSPropertyOp13
 70
     1
102
RTVSPropertyOp14
 70
     1
102
RTVSPropertyOp15
 70
     1
102
RTVSPropertyOp16
 70
     1
102
RTVSPropertyOp17
 70
     1
102
RTVSPropertyOp18
 70
     1
102
RTVSPropertyOp19
 70
     1
102
RTVSPropertyOp20
 70
     1
102
RTVSPropertyOp21
 70
     1
102
RTVSPropertyOp22
 70
     1
102
RTVSPropertyOp23
 70
     1
102
RTVSPropertyOp24
 70
     1
102
RTVSPropertyOp25
 70
     1
102
RTVSPropertyOp26
 70
     1
102
RTVSPropertyOp27
 70
     1
102
RTVSPropertyOp28
 70
     1
102
RTVSPropertyOp29
 70
     1
102
RTVSPropertyOp30
 70
     1
102
RTVSPropertyOp31
 70
     1
102
RTVSPropertyOp32
 70
     1
  0
XRECORD
  5
396
102
{ACAD_REACTORS
330
395
102
}
330
395
100
AcDbXrecord
280
     1
102
RTVSPropertyOp0
 70
     1
102
RTVSPropertyOp1
 70
     1
102
RTVSPropertyOp2
 70
     1
102
RTVSPropertyOp3
 70
     1
102
RTVSPropertyOp4
 70
     1
102
RTVSPropertyOp5
 70
     1
102
RTVSPropertyOp6
 70
     1
102
RTVSPropertyOp7
 70
     1
102
RTVSPropertyOp8
 70
     1
102
RTVSPropertyOp9
 70
     1
102
RTVSPropertyOp10
 70
     1
102
RTVSPropertyOp11
 70
     1
102
RTVSPropertyOp12
 70
     1
102
RTVSPropertyOp13
 70
     1
102
RTVSPropertyOp14
 70
     1
102
RTVSPropertyOp15
 70
     1
102
RTVSPropertyOp16
 70
     1
102
RTVSPropertyOp17
 70
     1
102
RTVSPropertyOp18
 70
     1
102
RTVSPropertyOp19
 70
     1
102
RTVSPropertyOp20
 70
     1
102
RTVSPropertyOp21
 70
     1
102
RTVSPropertyOp22
 70
     1
102
RTVSPropertyOp23
 70
     1
102
RTVSPropertyOp24
 70
     1
102
RTVSPropertyOp25
 70
     1
102
RTVSPropertyOp26
 70
     1
102
RTVSPropertyOp27
 70
     1
102
RTVSPropertyOp28
 70
     1
102
RTVSPropertyOp29
 70
     1
102
RTVSPropertyOp30
 70
     1
102
RTVSPropertyOp31
 70
     1
102
RTVSPropertyOp32
 70
     1
  0
XRECORD
  5
38A
102
{ACAD_REACTORS
330
389
102
}
330
389
100
AcDbXrecord
280
     1
102
RTVSPropertyOp0
 70
     1
102
RTVSPropertyOp1
 70
     1
102
RTVSPropertyOp2
 70
     1
102
RTVSPropertyOp3
 70
     1
102
RTVSPropertyOp4
 70
     1
102
RTVSPropertyOp5
 70
     1
102
RTVSPropertyOp6
 70
     1
102
RTVSPropertyOp7
 70
     1
102
RTVSPropertyOp8
 70
     1
102
RTVSPropertyOp9
 70
     1
102
RTVSPropertyOp10
 70
     1
102
RTVSPropertyOp11
 70
     1
102
RTVSPropertyOp12
 70
     1
102
RTVSPropertyOp13
 70
     1
102
RTVSPropertyOp14
 70
     1
102
RTVSPropertyOp15
 70
     1
102
RTVSPropertyOp16
 70
     1
102
RTVSPropertyOp17
 70
     1
102
RTVSPropertyOp18
 70
     1
102
RTVSPropertyOp19
 70
     1
102
RTVSPropertyOp20
 70
     1
102
RTVSPropertyOp21
 70
     1
102
RTVSPropertyOp22
 70
     1
102
RTVSPropertyOp23
 70
     1
102
RTVSPropertyOp24
 70
     1
102
RTVSPropertyOp25
 70
     1
102
RTVSPropertyOp26
 70
     1
102
RTVSPropertyOp27
 70
     1
102
RTVSPropertyOp28
 70
     1
102
RTVSPropertyOp29
 70
     1
102
RTVSPropertyOp30
 70
     1
102
RTVSPropertyOp31
 70
     1
102
RTVSPropertyOp32
 70
     1
  0
XRECORD
  5
38C
102
{ACAD_REACTORS
330
38B
102
}
330
38B
100
AcDbXrecord
280
     1
102
RTVSPropertyOp0
 70
     1
102
RTVSPropertyOp1
 70
     1
102
RTVSPropertyOp2
 70
     1
102
RTVSPropertyOp3
 70
     1
102
RTVSPropertyOp4
 70
     1
102
RTVSPropertyOp5
 70
     1
102
RTVSPropertyOp6
 70
     1
102
RTVSPropertyOp7
 70
     1
102
RTVSPropertyOp8
 70
     1
102
RTVSPropertyOp9
 70
     1
102
RTVSPropertyOp10
 70
     1
102
RTVSPropertyOp11
 70
     1
102
RTVSPropertyOp12
 70
     1
102
RTVSPropertyOp13
 70
     1
102
RTVSPropertyOp14
 70
     1
102
RTVSPropertyOp15
 70
     1
102
RTVSPropertyOp16
 70
     1
102
RTVSPropertyOp17
 70
     1
102
RTVSPropertyOp18
 70
     1
102
RTVSPropertyOp19
 70
     1
102
RTVSPropertyOp20
 70
     1
102
RTVSPropertyOp21
 70
     1
102
RTVSPropertyOp22
 70
     1
102
RTVSPropertyOp23
 70
     1
102
RTVSPropertyOp24
 70
     1
102
RTVSPropertyOp25
 70
     1
102
RTVSPropertyOp26
 70
     1
102
RTVSPropertyOp27
 70
     1
102
RTVSPropertyOp28
 70
     1
102
RTVSPropertyOp29
 70
     1
102
RTVSPropertyOp30
 70
     1
102
RTVSPropertyOp31
 70
     1
102
RTVSPropertyOp32
 70
     1
  0
XRECORD
  5
394
102
{ACAD_REACTORS
330
393
102
}
330
393
100
AcDbXrecord
280
     1
102
RTVSPropertyOp0
 70
     1
102
RTVSPropertyOp1
 70
     1
102
RTVSPropertyOp2
 70
     1
102
RTVSPropertyOp3
 70
     1
102
RTVSPropertyOp4
 70
     1
102
RTVSPropertyOp5
 70
     1
102
RTVSPropertyOp6
 70
     1
102
RTVSPropertyOp7
 70
     1
102
RTVSPropertyOp8
 70
     1
102
RTVSPropertyOp9
 70
     1
102
RTVSPropertyOp10
 70
     1
102
RTVSPropertyOp11
 70
     1
102
RTVSPropertyOp12
 70
     1
102
RTVSPropertyOp13
 70
     1
102
RTVSPropertyOp14
 70
     1
102
RTVSPropertyOp15
 70
     1
102
RTVSPropertyOp16
 70
     1
102
RTVSPropertyOp17
 70
     1
102
RTVSPropertyOp18
 70
     1
102
RTVSPropertyOp19
 70
     1
102
RTVSPropertyOp20
 70
     1
102
RTVSPropertyOp21
 70
     1
102
RTVSPropertyOp22
 70
     1
102
RTVSPropertyOp23
 70
     1
102
RTVSPropertyOp24
 70
     1
102
RTVSPropertyOp25
 70
     1
102
RTVSPropertyOp26
 70
     1
102
RTVSPropertyOp27
 70
     1
102
RTVSPropertyOp28
 70
     1
102
RTVSPropertyOp29
 70
     1
102
RTVSPropertyOp30
 70
     1
102
RTVSPropertyOp31
 70
     1
102
RTVSPropertyOp32
 70
     1
  0
XRECORD
  5
378
102
{ACAD_REACTORS
330
377
102
}
330
377
100
AcDbXrecord
280
     1
102
RTVSPropertyOp0
 70
     1
102
RTVSPropertyOp1
 70
     1
102
RTVSPropertyOp2
 70
     1
102
RTVSPropertyOp3
 70
     1
102
RTVSPropertyOp4
 70
     1
102
RTVSPropertyOp5
 70
     1
102
RTVSPropertyOp6
 70
     1
102
RTVSPropertyOp7
 70
     1
102
RTVSPropertyOp8
 70
     1
102
RTVSPropertyOp9
 70
     1
102
RTVSPropertyOp10
 70
     1
102
RTVSPropertyOp11
 70
     1
102
RTVSPropertyOp12
 70
     1
102
RTVSPropertyOp13
 70
     1
102
RTVSPropertyOp14
 70
     1
102
RTVSPropertyOp15
 70
     1
102
RTVSPropertyOp16
 70
     1
102
RTVSPropertyOp17
 70
     1
102
RTVSPropertyOp18
 70
     1
102
RTVSPropertyOp19
 70
     1
102
RTVSPropertyOp20
 70
     1
102
RTVSPropertyOp21
 70
     1
102
RTVSPropertyOp22
 70
     1
102
RTVSPropertyOp23
 70
     1
102
RTVSPropertyOp24
 70
     1
102
RTVSPropertyOp25
 70
     1
102
RTVSPropertyOp26
 70
     1
102
RTVSPropertyOp27
 70
     1
102
RTVSPropertyOp28
 70
     1
102
RTVSPropertyOp29
 70
     1
102
RTVSPropertyOp30
 70
     1
102
RTVSPropertyOp31
 70
     1
102
RTVSPropertyOp32
 70
     1
  0
XRECORD
  5
37A
102
{ACAD_REACTORS
330
379
102
}
330
379
100
AcDbXrecord
280
     1
102
RTVSPropertyOp0
 70
     1
102
RTVSPropertyOp1
 70
     1
102
RTVSPropertyOp2
 70
     1
102
RTVSPropertyOp3
 70
     1
102
RTVSPropertyOp4
 70
     1
102
RTVSPropertyOp5
 70
     1
102
RTVSPropertyOp6
 70
     1
102
RTVSPropertyOp7
 70
     1
102
RTVSPropertyOp8
 70
     1
102
RTVSPropertyOp9
 70
     1
102
RTVSPropertyOp10
 70
     1
102
RTVSPropertyOp11
 70
     1
102
RTVSPropertyOp12
 70
     1
102
RTVSPropertyOp13
 70
     1
102
RTVSPropertyOp14
 70
     1
102
RTVSPropertyOp15
 70
     1
102
RTVSPropertyOp16
 70
     1
102
RTVSPropertyOp17
 70
     1
102
RTVSPropertyOp18
 70
     1
102
RTVSPropertyOp19
 70
     1
102
RTVSPropertyOp20
 70
     1
102
RTVSPropertyOp21
 70
     1
102
RTVSPropertyOp22
 70
     1
102
RTVSPropertyOp23
 70
     1
102
RTVSPropertyOp24
 70
     1
102
RTVSPropertyOp25
 70
     1
102
RTVSPropertyOp26
 70
     1
102
RTVSPropertyOp27
 70
     1
102
RTVSPropertyOp28
 70
     1
102
RTVSPropertyOp29
 70
     1
102
RTVSPropertyOp30
 70
     1
102
RTVSPropertyOp31
 70
     1
102
RTVSPropertyOp32
 70
     1
  0
XRECORD
  5
37C
102
{ACAD_REACTORS
330
37B
102
}
330
37B
100
AcDbXrecord
280
     1
102
RTVSPropertyOp0
 70
     1
102
RTVSPropertyOp1
 70
     1
102
RTVSPropertyOp2
 70
     1
102
RTVSPropertyOp3
 70
     1
102
RTVSPropertyOp4
 70
     1
102
RTVSPropertyOp5
 70
     1
102
RTVSPropertyOp6
 70
     1
102
RTVSPropertyOp7
 70
     1
102
RTVSPropertyOp8
 70
     1
102
RTVSPropertyOp9
 70
     1
102
RTVSPropertyOp10
 70
     1
102
RTVSPropertyOp11
 70
     1
102
RTVSPropertyOp12
 70
     1
102
RTVSPropertyOp13
 70
     1
102
RTVSPropertyOp14
 70
     1
102
RTVSPropertyOp15
 70
     1
102
RTVSPropertyOp16
 70
     1
102
RTVSPropertyOp17
 70
     1
102
RTVSPropertyOp18
 70
     1
102
RTVSPropertyOp19
 70
     1
102
RTVSPropertyOp20
 70
     1
102
RTVSPropertyOp21
 70
     1
102
RTVSPropertyOp22
 70
     1
102
RTVSPropertyOp23
 70
     1
102
RTVSPropertyOp24
 70
     1
102
RTVSPropertyOp25
 70
     1
102
RTVSPropertyOp26
 70
     1
102
RTVSPropertyOp27
 70
     1
102
RTVSPropertyOp28
 70
     1
102
RTVSPropertyOp29
 70
     1
102
RTVSPropertyOp30
 70
     1
102
RTVSPropertyOp31
 70
     1
102
RTVSPropertyOp32
 70
     1
  0
XRECORD
  5
37E
102
{ACAD_REACTORS
330
37D
102
}
330
37D
100
AcDbXrecord
280
     1
102
RTVSPropertyOp0
 70
     1
102
RTVSPropertyOp1
 70
     1
102
RTVSPropertyOp2
 70
     1
102
RTVSPropertyOp3
 70
     1
102
RTVSPropertyOp4
 70
     1
102
RTVSPropertyOp5
 70
     1
102
RTVSPropertyOp6
 70
     1
102
RTVSPropertyOp7
 70
     1
102
RTVSPropertyOp8
 70
     1
102
RTVSPropertyOp9
 70
     1
102
RTVSPropertyOp10
 70
     1
102
RTVSPropertyOp11
 70
     1
102
RTVSPropertyOp12
 70
     1
102
RTVSPropertyOp13
 70
     1
102
RTVSPropertyOp14
 70
     1
102
RTVSPropertyOp15
 70
     1
102
RTVSPropertyOp16
 70
     1
102
RTVSPropertyOp17
 70
     1
102
RTVSPropertyOp18
 70
     1
102
RTVSPropertyOp19
 70
     1
102
RTVSPropertyOp20
 70
     1
102
RTVSPropertyOp21
 70
     1
102
RTVSPropertyOp22
 70
     1
102
RTVSPropertyOp23
 70
     1
102
RTVSPropertyOp24
 70
     1
102
RTVSPropertyOp25
 70
     1
102
RTVSPropertyOp26
 70
     1
102
RTVSPropertyOp27
 70
     1
102
RTVSPropertyOp28
 70
     1
102
RTVSPropertyOp29
 70
     1
102
RTVSPropertyOp30
 70
     1
102
RTVSPropertyOp31
 70
     1
102
RTVSPropertyOp32
 70
     1
  0
XRECORD
  5
392
102
{ACAD_REACTORS
330
391
102
}
330
391
100
AcDbXrecord
280
     1
102
RTVSPropertyOp0
 70
     1
102
RTVSPropertyOp1
 70
     1
102
RTVSPropertyOp2
 70
     1
102
RTVSPropertyOp3
 70
     1
102
RTVSPropertyOp4
 70
     1
102
RTVSPropertyOp5
 70
     1
102
RTVSPropertyOp6
 70
     1
102
RTVSPropertyOp7
 70
     1
102
RTVSPropertyOp8
 70
     1
102
RTVSPropertyOp9
 70
     1
102
RTVSPropertyOp10
 70
     1
102
RTVSPropertyOp11
 70
     1
102
RTVSPropertyOp12
 70
     1
102
RTVSPropertyOp13
 70
     1
102
RTVSPropertyOp14
 70
     1
102
RTVSPropertyOp15
 70
     1
102
RTVSPropertyOp16
 70
     1
102
RTVSPropertyOp17
 70
     1
102
RTVSPropertyOp18
 70
     1
102
RTVSPropertyOp19
 70
     1
102
RTVSPropertyOp20
 70
     1
102
RTVSPropertyOp21
 70
     1
102
RTVSPropertyOp22
 70
     1
102
RTVSPropertyOp23
 70
     1
102
RTVSPropertyOp24
 70
     1
102
RTVSPropertyOp25
 70
     1
102
RTVSPropertyOp26
 70
     1
102
RTVSPropertyOp27
 70
     1
102
RTVSPropertyOp28
 70
     1
102
RTVSPropertyOp29
 70
     1
102
RTVSPropertyOp30
 70
     1
102
RTVSPropertyOp31
 70
     1
102
RTVSPropertyOp32
 70
     1
  0
XRECORD
  5
388
102
{ACAD_REACTORS
330
387
102
}
330
387
100
AcDbXrecord
280
     1
102
RTVSPropertyOp0
 70
     1
102
RTVSPropertyOp1
 70
     1
102
RTVSPropertyOp2
 70
     1
102
RTVSPropertyOp3
 70
     1
102
RTVSPropertyOp4
 70
     1
102
RTVSPropertyOp5
 70
     1
102
RTVSPropertyOp6
 70
     1
102
RTVSPropertyOp7
 70
     1
102
RTVSPropertyOp8
 70
     1
102
RTVSPropertyOp9
 70
     1
102
RTVSPropertyOp10
 70
     1
102
RTVSPropertyOp11
 70
     1
102
RTVSPropertyOp12
 70
     1
102
RTVSPropertyOp13
 70
     1
102
RTVSPropertyOp14
 70
     1
102
RTVSPropertyOp15
 70
     1
102
RTVSPropertyOp16
 70
     1
102
RTVSPropertyOp17
 70
     1
102
RTVSPropertyOp18
 70
     1
102
RTVSPropertyOp19
 70
     1
102
RTVSPropertyOp20
 70
     1
102
RTVSPropertyOp21
 70
     1
102
RTVSPropertyOp22
 70
     1
102
RTVSPropertyOp23
 70
     1
102
RTVSPropertyOp24
 70
     1
102
RTVSPropertyOp25
 70
     1
102
RTVSPropertyOp26
 70
     1
102
RTVSPropertyOp27
 70
     1
102
RTVSPropertyOp28
 70
     1
102
RTVSPropertyOp29
 70
     1
102
RTVSPropertyOp30
 70
     1
102
RTVSPropertyOp31
 70
     1
102
RTVSPropertyOp32
 70
     1
  0
XRECORD
  5
390
102
{ACAD_REACTORS
330
38F
102
}
330
38F
100
AcDbXrecord
280
     1
102
RTVSPropertyOp0
 70
     1
102
RTVSPropertyOp1
 70
     1
102
RTVSPropertyOp2
 70
     1
102
RTVSPropertyOp3
 70
     1
102
RTVSPropertyOp4
 70
     1
102
RTVSPropertyOp5
 70
     1
102
RTVSPropertyOp6
 70
     1
102
RTVSPropertyOp7
 70
     1
102
RTVSPropertyOp8
 70
     1
102
RTVSPropertyOp9
 70
     1
102
RTVSPropertyOp10
 70
     1
102
RTVSPropertyOp11
 70
     1
102
RTVSPropertyOp12
 70
     1
102
RTVSPropertyOp13
 70
     1
102
RTVSPropertyOp14
 70
     1
102
RTVSPropertyOp15
 70
     1
102
RTVSPropertyOp16
 70
     1
102
RTVSPropertyOp17
 70
     1
102
RTVSPropertyOp18
 70
     1
102
RTVSPropertyOp19
 70
     1
102
RTVSPropertyOp20
 70
     1
102
RTVSPropertyOp21
 70
     1
102
RTVSPropertyOp22
 70
     1
102
RTVSPropertyOp23
 70
     1
102
RTVSPropertyOp24
 70
     1
102
RTVSPropertyOp25
 70
     1
102
RTVSPropertyOp26
 70
     1
102
RTVSPropertyOp27
 70
     1
102
RTVSPropertyOp28
 70
     1
102
RTVSPropertyOp29
 70
     1
102
RTVSPropertyOp30
 70
     1
102
RTVSPropertyOp31
 70
     1
102
RTVSPropertyOp32
 70
     1
  0
ENDSEC
  0
EOF
